.
Авторизация | Регистрация
Хочешь лучшие торренты? Добавь свой email!
Добавить
» » Три орешка для Золушки / Tri orsky pro Popelku (1973) BDRip 720p от HQ-ViDEO | P торрент скачать бесплатно


    Три орешка для Золушки / Tri orsky pro Popelku (1973) BDRip 720p от HQ-ViDEO | P торрент скачать бесплатно

    Опубликовал: Админ | Дата: 29-05-2015, 16:56 | Просмотров: 127


    Три орешка для Золушки/Tri or?sky pro Popelku/Three Wishes for Cinderella (1973) BDRip 720p
    Релиз от HQ-ViDEO

    Детально о кино
    Русское название: Три орешка для Золушки
    Русское название в мировом прокате: Tri or?sky pro Popelku/Three Wishes for Cinderella
    Создали в: 1973
    Категория жанра: фэнтези, драма, мелодрама, приключения, семейный
    Главный режиссер: Вацлав Ворличек /V?clav Vorl?cek/

    Актеры
    Либуше Шафранкова /Libuse Safr?nkov?/, Павел Травничек /Pavel Tr?vn?cek/, Карола Браунбок /Carola Braunbock/, Рольф Хоппе /Rolf Hoppe/, Карин Леш /Karin Lesch/, Дана Главачова /Dana Hlav?cov?/, Ян Либичек /Jan Lib?cek/, Витезслав Яндак /V?tezslav Jand?k/, Ярослав Дрбоглав /Jaroslav Drbohlav/, Владимир Меншик /Vladim?r Mens?k/...

    Сюжет фильма

    Мачеха Золушки всеми силами хочет выдать свою глупую и злую родную дочь замуж за принца. Но тому совсем не хочется жениться, он ссорится с отцом и собирается покинуть дворец, но… в последний момент он влюбляется в очаровательную незнакомку в маске, которая быстро исчезает. Принц и не догадывается, что эта прекрасная девушка, ловкий стрелок, которого он встретил в лесу и озорная девчонка — одно и то же лицо. Все эти превращения оказались возможными благодаря волшебным орешкам, в одном из которых находился и свадебный подарок для Золушки.

    Снималось в: Чехословакия, Германия (ГДР)
    Время просмотра: 01: 22: 53
    Перевод текста: Русский профессиональный, многоголосый
    Файл
    Кодек для видео: MKV, H.264
    Качество фильма: BDRip 720p (Source: Blu-ray Disc)
    Информация о видео: 7211 kbps; 0.313 bit/pixel; 1280 x 720; 16: 9; 25 fps
    Информация о звуке: AC3 Dolby Digital; 192.00 kbps, 2 Ch - MVO
    Субтитры: Русские, Английские.
    Размер скачиваемого торрента: 4.37 GB
    SAMPLE/скачать с Яндекс Диск
    MediaInfo

    General
    Complete name : Tri.Oreshka.Dlya.Zolushki.1973.RUS.BDRip.720p.h264.AC3.-HQ-ViDEO.mkv
    Format : Matroska
    File size : 4.37 GiB
    Duration : 1h 22mn
    Overall bit rate : 7 553 Kbps
    Movie name : Tri or?sky pro Popelku/Three Wishes for Cinderella (1973)
    Encoded date : UTC 2010-12-30 12: 50: 46
    Writing application : mkvmerge v3.3.0 (;Language;) built on Mar 24 2010 14: 59: 24
    Writing library : libebml v0.8.0 + libmatroska v0.9.0
    Video
    ID : 1
    Format : AVC
    Format/Info : Advanced Video Codec
    Format profile : High@L4.1
    Format settings, CABAC : Yes
    Format settings, ReFrames : 6 frames
    Muxing mode : Container profile=Unknown@4.1
    Codec ID : V_MPEG4/ISO/AVC
    Duration : 1h 22mn
    Bit rate : 7 211 Kbps
    Width : 1 280 pixels
    Height : 720 pixels
    Display aspect ratio : 16: 9
    Frame rate : 25.000 fps
    Resolution : 8 bits
    Colorimetry : 4: 2: 0
    Scan type : Progressive
    Bits/(Pixel*Frame) : 0.313
    Stream size : 4.18 GiB (95%)
    Title : Encoded by GYN
    Audio
    ID : 2
    Format : AC-3
    Format/Info : Audio Coding 3
    Format profile : Dolby Digital
    Codec ID : A_AC3
    Duration : 1h 22mn
    Bit rate mode : Constant
    Bit rate : 192 Kbps
    Channel(s) : 2 channels
    Channel positions : L R
    Sampling rate : 48.0 KHz
    Stream size : 114 MiB (3%)
    Title : MVO
    Language : Russian
    Text #1
    ID : 3
    Format : UTF-8
    Codec ID : S_TEXT/UTF8
    Codec ID/Info : UTF-8 Plain Text
    Language : Russian
    Text #2
    ID : 4
    Format : UTF-8
    Codec ID : S_TEXT/UTF8
    Codec ID/Info : UTF-8 Plain Text
    Language : English





    Релиз подготовил: HQ-ViDEO
    Автор рипа: GYN

    Онлайн видео Три орешка для Золушки


    Размер скачиваемого торрента: 4.37 GB (4696047208 Bytes)

    Три орешка для Золушки/Tri orsky pro Popelku (1973) BDRip 720p от HQ-ViDEO | P
    загрузка...
    Рейтинг →
     (голосов: 1, оценка 3/5, голосовать можно 1 раз )

    Другие торренты по теме:

  • Три орешка для Золушки / Tri orsky pro Popelku (1973) DVD9 от NovaLan


    • Комментарии (0):

      Информация

      Информация

        Посетители, находящиеся в группе Гости, не могут оставлять комментарии в данной новости.

        ↓ Меню



        ↓ Опрос

        А Вы добавили сайт в закладки?
        Да
        Не


        Top 10 за месяц (Фильмы)