.
Авторизация | Регистрация
Хочешь лучшие торренты? Добавь свой email!
Добавить
» » Голодные игры: Сойка-пересмешница. Часть I / The Hunger Games: Mockingjay - Part 1 (2014) DVD5 торрент скачать бесплатно




    Голодные игры: Сойка-пересмешница. Часть I / The Hunger Games: Mockingjay - Part 1 (2014) DVD5 торрент скачать бесплатно

    Опубликовал: Админ | Дата: 30-05-2015, 15:01 | Просмотров: 117

    Храбрость одного изменит мир

    Создали в: 2014
    Создали в: США/Color Force, Lionsgate
    Категория жанра: Фантастика, приключения
    Главный режиссер: Френсис Лоуренс
    Продюсеры: Нина Джейкобсон, Джон Килик, Сьюзен Коллинз
    Актеры: Дженнифер Лоуренс, Лиам Хемсворт, Джош Хатчерсон, Джулианна Мур, Филип Сеймур Хоффман, Дональд Сазерленд, Вуди Харрельсон, Элизабет Бэнкс, Натали Дормер, Сэм Клафлин
    Описание фильма:
    75-ые Голодные игры изменили все. Китнисс нарушила правила, и непоколебимое до той поры деспотичное правление Капитолия пошатнулось. У людей появилась надежда, и ее символ — Сойка-пересмешница. Теперь, чтобы освободить захваченного в плен Пита и защитить своих близких, Китнисс придется сражаться в настоящих битвах и стать еще сильнее, чем на арене игр.
    Перевод текста: Дублированный
    Язык субтитров: Английский, русский
    Дата мировой премьеры: 10 ноября 2014
    Дата российской премьеры: 20 ноября 2014, Вольга
    Дата выхода DVD релиза: 21 апреля 2015, Lizard Cinema Trade
    Время просмотра: 01: 58: 18
    Качество фильма видео: DVD5
    Информация о видеокодек: MPEG-2
    Битрейт видео: ~4831 Кбит/сек
    Размер скачиваемого торрента кадра: 720х576@1024x576 (PAL 16: 9)
    Информация о звукекодек: AC3 5.1
    Битрейт аудио: 448 Кбит/сек
    DVDInfo:
    Title: The Hunger Games. Mockingjay (2014) DVD5 PAL
    Size: 4.38 Gb ( 4 587 784, 00 KBytes ) - DVD-5
    Enabled regions: 1, 2, 3, 4, 5, 6, 7, 8
    VTS_01 :
    Play Length: 01: 58: 18
    Video: PAL 16: 9 (720x576) VBR, Auto Letterboxed
    Audio:
    Russian (Dolby AC3, 6 ch)
    Subtitles:
    English
    Russian
    * Menus Information *
    VIDEO_TS Menu
    Video:
    NTSC 4: 3 (720x480) VBR
    Auto PanScan, Auto Letterboxed
    English Language Unit :
    Title Menu
    VTS_01 Menu
    Video:
    PAL 16: 9 (720x576) VBR
    Auto Letterboxed
    English Language Unit :
    Root Menu
    MediaInfo:
    Общее
    Полное имя : G: ВидеоThe Hunger Games. Mockingjay (2014) DVD5 PALVIDEO_TSVTS_01_3.VOB
    Формат : MPEG-PS
    Размер файла : 1024 Мбайт
    Продолжительность : 26 м.
    Режим общего битрейта : Переменный
    Общий поток : 5386 Кбит/сек
    Видео
    Идентификатор : 224 (0xE0)
    Формат : MPEG Video
    Версия формата : Version 2
    Профиль формата : Main@Main
    Параметр BVOP формата : Да
    Параметр матрицы формата : Выборочная
    Параметр GOP формата : Variable
    Продолжительность : 26 м.
    Вид битрейта : Переменный
    Битрейт : 4831 Кбит/сек
    Максимальный битрейт : 7744 Кбит/сек
    Ширина : 720 пикселей
    Высота : 576 пикселей
    Соотношение сторон : 16: 9
    Частота кадров : 25, 000 кадров/сек
    Стандарт вещания : PAL
    Цветовое пространство : YUV
    Субдискретизация насыщенности : 4: 2: 0
    Битовая глубина : 8 бит
    Тип развёртки : Прогрессивная
    Порядок развёртки : Нижнее поле первое
    Метод сжатия : С потерями
    Бит/(Пиксели*Кадры) : 0.466
    Временной код первого кадра : 00: 54: 27: 08
    Оригинал временного кода : Group of pictures t_head
    GOP, открыто/закрыто : Открыто
    Размер потока : 918 Мбайт (90%)
    Аудио
    Идентификатор : 189 (0xBD)-128 (0x80)
    Формат : AC-3
    Формат/Информация : Audio Coding 3
    Расширение режима : CM (complete main)
    Параметр Endianness формата : Big
    Режим смешивания : DVD-Video
    Продолжительность : 26 м.
    Вид битрейта : Постоянный
    Битрейт : 448 Кбит/сек
    Каналы : 6 каналов
    Расположение каналов : Front: L C R, Side: L R, LFE
    Частота : 48, 0 КГц
    Битовая глубина : 16 бит
    Метод сжатия : С потерями
    Задержка видео : -712 мс.
    Размер потока : 85, 2 Мбайт (8%)
    Текст #1
    Идентификатор : 189 (0xBD)-32 (0x20)
    Формат : RLE
    Формат/Информация : Run-length encoding
    Режим смешивания : DVD-Video
    Продолжительность : 26 м.
    Задержка видео : -240 мс.
    Текст #2
    Идентификатор : 189 (0xBD)-33 (0x21)
    Формат : RLE
    Формат/Информация : Run-length encoding
    Режим смешивания : DVD-Video
    Продолжительность : 26 м.
    Задержка видео : -160 мс.
    Меню
    Доп. информация:
    Исходник: Голодные игры: Сойка-пересмешница. Часть I/The Hunger Games: Mockingjay - Part 1 (2014) DVD9 | Custom.
    Удалены: доп. материалы, AC3 5.1 (английская) и AC3 2.0 звуковая дорожка (в меню кнопки закрыты).
    Команды диска переписаны заново, оставлен один VTS.
    Видео сжато на 28, 9%
    Меню: статичное, недействующие кнопки затерты и закрыты.
    Обработка и сжатие: DVD ReMake Pro + DVD Rebuilder + CCE SP2 7 проходов + Работа с меню (Adobe PhotoShop и MuxMan).
    Скриншоты меню:

    Скриншоты:

    Залил: Саша 1992

    Онлайн видео Голодные игры: Сойка-пересмешница. Часть I


    Размер скачиваемого торрента: 4.38 GB (4697890816 Bytes)

    Голодные игры: Сойка-пересмешница. Часть I/The Hunger Games: Mockingjay - Part 1 (2014) DVD5
    загрузка...
    Рейтинг →
     (голосов: 1, оценка 3/5, голосовать можно 1 раз )

    Другие торренты по теме:

  • Голодные игры / The Hunger Games (2012) HDRip
  • Сьюзен Коллинз / Suzanne Collins - Голодные игры (2010-2011) fb2
  • Голодные игры: И вспыхнет пламя / The Hunger Games: Catching Fire (2013) HD 1080p | Трейлер-тизер
  • Голодные игры (2013) SATRip
  • OST - Голодные игры / The Hunger Games (2012) MP3 скачать через торрент бесплатно
  • Пусть говорят - Голодные игры (2013) HDTVRip от MediaClub скачать через торрент бесплатно
  • OST - Голодные игры: И вспыхнет пламя / Hunger Games: Catching Fire (2013) MP3
  • Голодные игры: И вспыхнет пламя / The Hunger Games: Catching Fire (2013) DCPrip | Трейлер


    • Комментарии (0):

      Информация

      Информация

        Посетители, находящиеся в группе Гости, не могут оставлять комментарии в данной новости.

        ↓ Меню



        ↓ Опрос

        А Вы добавили сайт в закладки?
        Да
        Не


        Top 10 за месяц (Фильмы)