.
Авторизация | Регистрация
» » Спасение / The Salvation (2014) BDRip 720p от KinoGadget | iPad скачать торрент бесплатно




    Спасение / The Salvation (2014) BDRip 720p от KinoGadget | iPad скачать торрент бесплатно

    Опубликовал: Админ | Дата: 30-05-2015, 15:02 | Просмотров: 63


    Создали в: 2014
    Снималось в: Дания, Великобритания, ЮАР, Швеция, Бельгия
    Категория жанра: драма, вестерн
    Время просмотра: 01: 27: 56
    Перевод текста: Дублированный
    Главный режиссер: Кристиан Левринг

    Актеры
    Мадс Миккельсен, Ева Грин, Джеффри Дин Морган, Эрик Кантона, Микаэл Персбрандт, Дуглас Хеншэлл, Майкл Рэймонд-Джеймс, Джонатан Прайс, Александр Арнольд, Нанна Оланд Фабрициус, Токе Бьярке, Шон Майкл, Карл Нель, Кобус Суэйнпул, Хосе Домингос, Сиван Рафаэли, Ванесса Кук, Грант Суэнби, Тео Геденхайс, Сьюзэн Дэнфорд
    Описание: Джон, фермер, чья семья убита, дает клятву отомстить, выслеживает и наказывает убийцу. Его действия запускают цепочку насилия: лидер местной банды со своими напарниками решает расправиться с Джоном и его деревней.

    Информация о видео кодек: MPEG-4 AVC
    Качество фильма: BDRip 720p
    Параметры Видео: 1280x534, 23.976 fps; ~1 744 kbps avg
    Параметры Звука: 44.1 KHz, AAC, ~150.00 kbps avg, 2ch
    Тип видео: mp4
    Автор рипа:
    Релиз-группа:

    Meta Tags


    MI
    General
    Complete name : E: Spasenie.2014.D.BDRip.720p_KinoGadget.mp4
    Format : MPEG-4
    Format profile : Base Media
    Codec ID : isom
    File size : 1.17 GiB
    Duration : 1h 27mn
    Overall bit rate mode : Variable
    Overall bit rate : 1 901 Kbps
    Movie name : Спасение
    Performer : Кристиан Левринг
    Genre : Drama, Western
    ContentType : Short Film
    Recorded date : 2014
    Encoded date : UTC 2015-05-30 07: 53: 38
    Tagged date : UTC 2015-05-30 08: 00: 17
    Cover : Yes
    ContentRating : mpaa|R|400|
    LongDeion : Джон, фермер, чья семья убита, дает клятву отомстить, выслеживает и наказывает убийцу. Его действия запускают цепочку насилия: лидер местной банды со своими напарниками решает расправиться с Джоном и его деревней.
    HDVideo : Yes
    Video
    ID : 1
    Format : AVC
    Format/Info : Advanced Video Codec
    Format profile : High@L4.1
    Format settings, CABAC : Yes
    Format settings, ReFrames : 11 frames
    Codec ID : avc1
    Codec ID/Info : Advanced Video Coding
    Duration : 1h 27mn
    Bit rate : 1 744 Kbps
    Maximum bit rate : 8 216 Kbps
    Width : 1 280 pixels
    Height : 534 pixels
    Display aspect ratio : 2.40: 1
    Frame rate mode : Constant
    Frame rate : 25.000 fps
    Color space : YUV
    Chroma subsampling : 4: 2: 0
    Bit depth : 8 bits
    Scan type : Progressive
    Bits/(Pixel*Frame) : 0.102
    Stream size : 1.07 GiB (92%)
    Writing library : x264 core 146 r2538 121396c
    Encoding settings : cabac=1/ref=11/deblock=1: -1: -1/analyse=0x3: 0x133/me=umh/subme=9/psy=1/psy_rd=1.00: 0.20/mixed_ref=1/me_range=24/chroma_me=1/trellis=2/8x8dct=1/cqm=0/deadzone=21, 11/fast_pskip=1/chroma_qp_offset=-3/threads=3/lookahead_threads=1/sliced_threads=0/nr=0/decimate=1/interlaced=0/bluray_compat=0/constrained_intra=0/bframes=4/b_pyramid=2/b_adapt=2/b_bias=0/direct=3/weightb=1/open_gop=0/weightp=2/keyint=250/keyint_min=25/scenecut=40/intra_refresh=0/rc_lookahead=60/rc=crf/mbtree=1/crf=21.0/qcomp=0.60/qpmin=0/qpmax=69/qpstep=4/ip_ratio=1.40/aq=1: 1.00
    Encoded date : UTC 2015-05-30 05: 04: 24
    Tagged date : UTC 2015-05-30 07: 54: 27
    Audio
    ID : 2
    Format : AAC
    Format/Info : Advanced Audio Codec
    Format profile : LC
    Codec ID : 40
    Duration : 1h 27mn
    Bit rate mode : Variable
    Bit rate : 150 Kbps
    Maximum bit rate : 201 Kbps
    Channel count : 2 channels
    Channel positions : Front: L R
    Sampling rate : 44.1 KHz
    Compression mode : Lossy
    Stream size : 94.1 MiB (8%)
    Language : Russian
    Encoded date : UTC 2015-05-30 07: 54: 15
    Tagged date : UTC 2015-05-30 07: 54: 27

    Скриншоты


    Залил: KinoGadget

    Онлайн видео Спасение


    Размер скачиваемого торрента: 1.17 GB (1253921066 Bytes)

    Спасение/The Salvation (2014) BDRip 720p от KinoGadget | iPad
    загрузка...
    Рейтинг →
     (голосов: 1, оценка 3/5, голосовать можно 1 раз )

    Другие торренты по теме:

  • Феи: Волшебное спасение / Tinker Bell and the Great Fairy Rescue (2010) BDRip 1080p торрент скачать бесплатно
  • Спасение / Moksha: Salvation (2001) SATRip от Files-x | P торрент скачать бесплатно
  • В надежде на спасение / Saving Hope (2012) WEB-DLRip | P торрент скачать бесплатно
  • Кладбище Обреченных: Спасение Неупокоенных Душ / Redemption Cemetery 4: Salvation of the Lost CE (2013) PC торрент скачать бесплатно
  • История любви. Спасение / Love Chronicles 3: Salvation CE (2013) PC торрент скачать бесплатно
  • Спасение генерала Яна / Saving General Yang (2013) HDRip-AVC от BTT-TEAM торрент скачать бесплатно
  • Большое призрачное спасение / The Great Ghost Rescue (2011) HDRip | L1 торрент скачать бесплатно
  • Отряд спасения / Rogue force (1998) DVDRip торрент скачать бесплатно


    • Комментарии (0):

      Информация

      Информация

        Посетители, находящиеся в группе Гости, не могут оставлять комментарии в данной новости.

        ↓ Меню



        ↓ Опрос

        А Вы добавили сайт в закладки?
        Да
        Не


        Top 10 за неделю (Фильмы)