.
Авторизация | Регистрация
Хочешь лучшие торренты? Добавь свой email!
Добавить
» » Дорога на Берлин (2015) BDRip 1080p | Лицензия торрент скачать бесплатно




    Дорога на Берлин (2015) BDRip 1080p | Лицензия торрент скачать бесплатно

    Опубликовал: Админ | Дата: 30-05-2015, 15:02 | Просмотров: 121


    Детально о кино
    Русское название в мировом прокате: Дорога на Берлин
    Создали в: 2015
    Категория жанра: Военный, драма
    Снималось в: Россия, Мосфильм, Продюсерская компания Александра Литвинова
    Главный режиссер: Сергей Попов

    Актеры
    Юрий Борисов, Амир Абдыкалыков, Мария Карпова, Максим Демченко, Александр Новик, Артем Лебедев, Андрей Дерюгин

    Сюжет фильма
    Действие фильма происходит в Великую Отечественную войну. Главные герои - лейтенант Огарков и рядовой Джурабаев - молодые люди, выходцы из разных союзных республик, разные по характеру и жизненным позициям, но объединенные общей целью. В основе фильма лежат их сложные отношения и поступки, продиктованные фоном страшных событий войны. Это история о человеческих взаимоотношениях, истинных нравственных ценностях, долге перед Родиной, близкими и самим собой.
    Файл
    Качество фильма: BDRemux 1080p
    Информация о видео: MPEG-4 AVC, 10500 Кбит/с, 1920х1032
    Информация о звуке: Русский (DTS, 6 ch, 1510 Кбит/с), (AC3, 6 ch, 640 Кбит/с)
    Размер скачиваемого торрента: 7.58 ГБ
    Время просмотра: 01: 25: 48
    Язык: Русский
    Семпл
    MI
    Общее
    Уникальный идентификатор : 225234794213513712247191811988239427251 (0xA972A4BA689D67DCAE265141862826B3)
    Полное имя : D: Doroga.Na.Berlin.2014.O.2015.BDRip.1080p.by.bog3417.mkv
    Формат : Matroska
    Версия формата : Version 2
    Размер файла : 7, 58 Гбайт
    Продолжительность : 1 ч. 25 м.
    Общий поток : 12, 6 Мбит/сек
    Название фильма : Doroga.Na.Berlin.2014.O.2015.BDRip.1080p.by.bog3417
    Дата кодирования : UTC 2015-05-30 08: 16: 23
    Программа кодирования : mkvmerge v7.9.0 (;Birds;) 64bit
    Библиотека кодирования : libebml v1.3.1 + libmatroska v1.4.2
    DURATION : 01: 25: 48.939000000
    NUMBER_OF_FRAMES : 482713
    NUMBER_OF_BYTES : 971219780
    _STATISTICS_WRITING_APP : mkvmerge v7.9.0 (;Birds;) 64bit
    _STATISTICS_WRITING_DATE_UTC : 2015-05-30 08: 16: 23
    _STATISTICS_TAGS : BPS DURATION NUMBER_OF_FRAMES NUMBER_OF_BYTES
    Видео
    Идентификатор : 1
    Формат : AVC
    Формат/Информация : Advanced Video Codec
    Профиль формата : High@L4.1
    Параметр CABAC формата : Да
    Параметр ReFrames формата : 5 кадров
    Идентификатор кодека : V_MPEG4/ISO/AVC
    Продолжительность : 1 ч. 25 м.
    Битрейт : 10, 5 Мбит/сек
    Ширина : 1920 пикселей
    Высота : 1032 пикселя
    Соотношение сторон : 1, 85: 1
    Режим частоты кадров : Постоянный
    Частота кадров : 23, 976 кадра/сек
    Цветовое пространство : YUV
    Субдискретизация насыщенности : 4: 2: 0
    Битовая глубина : 8 бит
    Тип развёртки : Прогрессивная
    Бит/(Пиксели*Кадры) : 0.221
    Размер потока : 6, 14 Гбайт (81%)
    Заголовок : Doroga.Na.Berlin.2014.O.2015.BDRip.1080p.by.bog3417
    Библиотека кодирования : x264 core 146 r2538 121396c
    Настройки программы : cabac=1/ref=5/deblock=1: -3: -3/analyse=0x3: 0x33/me=umh/subme=11/psy=1/psy_rd=1.06: 0.15/mixed_ref=1/me_range=32/chroma_me=1/trellis=2/8x8dct=1/cqm=0/deadzone=21, 11/fast_pskip=0/chroma_qp_offset=-3/threads=12/lookahead_threads=2/sliced_threads=0/nr=0/decimate=0/interlaced=0/bluray_compat=0/constrained_intra=0/bframes=9/b_pyramid=2/b_adapt=2/b_bias=0/direct=3/weightb=1/open_gop=0/weightp=2/keyint=240/keyint_min=23/scenecut=40/intra_refresh=0/rc_lookahead=60/rc=2pass/mbtree=1/bitrate=10500/ratetol=1.0/qcomp=0.60/qpmin=0/qpmax=69/qpstep=4/cplxblur=20.0/qblur=0.5/ip_ratio=1.40/aq=3: 0.90
    Язык : English
    Default : Да
    Forced : Нет
    DURATION : 01: 25: 48.894000000
    NUMBER_OF_FRAMES : 123450
    NUMBER_OF_BYTES : 6755930509
    _STATISTICS_WRITING_APP : mkvmerge v7.9.0 (;Birds;) 64bit
    _STATISTICS_WRITING_DATE_UTC : 2015-05-30 08: 16: 23
    _STATISTICS_TAGS : BPS DURATION NUMBER_OF_FRAMES NUMBER_OF_BYTES
    Аудио #1
    Идентификатор : 2
    Формат : DTS
    Формат/Информация : Digital Theater Systems
    Режим : 16
    Параметр Endianness формата : Big
    Идентификатор кодека : A_DTS
    Продолжительность : 1 ч. 25 м.
    Вид битрейта : Постоянный
    Битрейт : 1509 Кбит/сек
    Каналы : 6 каналов
    Расположение каналов : Front: L C R, Side: L R, LFE
    Частота : 48, 0 КГц
    Битовая глубина : 24 бит
    Метод сжатия : С потерями
    Размер потока : 926 Мбайт (12%)
    Язык : Russian
    Default : Да
    Forced : Нет
    Аудио #2
    Идентификатор : 3
    Формат : AC-3
    Формат/Информация : Audio Coding 3
    Расширение режима : CM (complete main)
    Параметр Endianness формата : Big
    Идентификатор кодека : A_AC3
    Продолжительность : 1 ч. 25 м.
    Вид битрейта : Постоянный
    Битрейт : 640 Кбит/сек
    Каналы : 6 каналов
    Расположение каналов : Front: L C R, Side: L R, LFE
    Частота : 48, 0 КГц
    Метод сжатия : С потерями
    Размер потока : 393 Мбайт (5%)
    Язык : Russian
    Default : Нет
    Forced : Нет
    Меню
    00: 00: 00.000 : en: 00: 00: 00.000
    00: 05: 18.693 : en: 00: 05: 18.693
    00: 13: 21.759 : en: 00: 13: 21.759
    00: 24: 10.407 : en: 00: 24: 10.407
    00: 35: 08.898 : en: 00: 35: 08.898
    00: 41: 55.554 : en: 00: 41: 55.554
    00: 49: 10.280 : en: 00: 49: 10.280
    00: 54: 30.725 : en: 00: 54: 30.725
    01: 00: 59.739 : en: 01: 00: 59.739
    01: 07: 18.993 : en: 01: 07: 18.993
    01: 13: 33.367 : en: 01: 13: 33.367
    01: 21: 17.998 : en: 01: 21: 17.998

    Скриншоты




    Онлайн видео Дорога на Берлин (2015) BDRip 1080p


    Размер скачиваемого торрента: 7.58 GB (8140799548 Bytes)

    Дорога на Берлин (2015) BDRip 1080p | Лицензия
    загрузка...
    Рейтинг →
     (голосов: 1, оценка 5/5, голосовать можно 1 раз )

    Другие торренты по теме:

  • Дорога на Арлингтон / Arlington Road (1999) BDRip-AVC | D
  • Дорога на Эльдорадо / The Road to El Dorado (2000) DVDRip | D
  • Дорога на Вэлвилл / The Road to Wellville (1994) DVDRip-AVC от Temperest
  • Минута славы. Дорога на Олимп! (2013) SATRip скачать через торрент бесплатно
  • Дорога на Арлингтон / Arlington Road (1999) BDRip 1080p от denis 100
  • Дорога на Арлингтон / Arlington Road (1999) BDRip 720p от denis 100
  • Минута славы. Дорога на Олимп! (2014) SATRip скачать через торрент бесплатно
  • Дорога на Арлингтон / Arlington Road (1999) BD-Remux 1080p от HDCLUB


    • Комментарии (0):

      Информация

      Информация

        Посетители, находящиеся в группе Гости, не могут оставлять комментарии в данной новости.

        ↓ Меню



        ↓ Опрос

        А Вы добавили сайт в закладки?
        Да
        Не


        Top 10 за месяц (Фильмы)