.
Авторизация | Регистрация
» » Битва за Севастополь (2015) BDRip 720p от KinoGadget | iPad скачать торрент бесплатно




    Битва за Севастополь (2015) BDRip 720p от KinoGadget | iPad скачать торрент бесплатно

    Опубликовал: Админ | Дата: 30-05-2015, 21:01 | Просмотров: 212


    Создали в: 2015
    Снималось в: Россия, Украина
    Категория жанра: военный, драма, мелодрама, боевик
    Время просмотра: 02: 02: 49
    Перевод текста: Оригинал (русский)
    Главный режиссер: Сергей Мокрицкий

    Актеры
    Юлия Пересильд, Евгений Цыганов, Олег Васильков, Никита Тарасов, Джоан Блэкэм, Полина Пахомова, Владимир Лилицкий, Анатолий Кот, Нателла Абелева-Таганова, Валерий Гришко, Сергей Барковский, Виталий Линецкий, Сергей Пускепалис, Геннадий Ченцов, Светлана Осадченко, Алла Сергийко, Станислав Боклан, Дмитрий Лаленков, Станислав Лесной, Сергей Сипливый
    Описание: Любовь под нескончаемым огнем противника, дружба с Элеонорой Рузвельт, выступление на конференции, повлиявшее на исход Второй мировой войны, желание жить и страх потерять любимого человека — справится ли со всем этим хрупкая женщина?
    Это реальная история Людмилы Павличенко — легендарной женщины-снайпера. Солдаты шли в бой с ее именем на устах, а враги устроили на нее охоту. На поле битвы она видела смерть и страдания, но самым серьезным испытанием для нее стала любовь, которую у нее могла забрать война…

    Информация о видео кодек: MPEG-4 AVC
    Качество фильма: BDRip 720p
    Параметры Видео: 1280x528, 24.000 fps; ~1 785 kbps avg
    Параметры Звука: 44.1 KHz, AAC, ~150.00 kbps avg, 2ch
    Тип видео: mp4
    Автор рипа:
    Релиз-группа:

    Meta Tags


    MI
    General
    Complete name : E: Bitva_za_Sevastopol.2015.O.BDRip.720p_KinoGadget.mp4
    Format : MPEG-4
    Format profile : Base Media
    Codec ID : isom
    File size : 1.67 GiB
    Duration : 2h 2mn
    Overall bit rate mode : Variable
    Overall bit rate : 1 943 Kbps
    Movie name : Битва за Севастополь
    Performer : Сергей Мокрицкий
    Genre : Drama, Romance
    ContentType : Short Film
    Recorded date : 2015
    Encoded date : UTC 2015-05-17 05: 38: 00
    Tagged date : UTC 2015-05-17 06: 47: 37
    Cover : Yes
    LongDeion : Любовь под нескончаемым огнем противника, дружба с Элеонорой Рузвельт, выступление на конференции, повлиявшее на исход Второй мировой войны, желание жить и страх потерять любимого человека — справится ли со всем этим хрупкая женщина?// Это реальная история Людмилы Павличенко — легендарной женщины-снайпера. Солдаты шли в бой с ее именем на устах, а враги устроили на нее охоту. На поле битвы она видела смерть и страдания, но самым серьезным испытанием для нее стала любовь, которую у нее могла забрать война…
    HDVideo : Yes
    Video
    ID : 1
    Format : AVC
    Format/Info : Advanced Video Codec
    Format profile : High@L4.1
    Format settings, CABAC : Yes
    Format settings, ReFrames : 11 frames
    Codec ID : avc1
    Codec ID/Info : Advanced Video Coding
    Duration : 2h 2mn
    Bit rate : 1 785 Kbps
    Maximum bit rate : 23.5 Mbps
    Width : 1 280 pixels
    Height : 528 pixels
    Display aspect ratio : 2.40: 1
    Frame rate mode : Constant
    Frame rate : 24.000 fps
    Color space : YUV
    Chroma subsampling : 4: 2: 0
    Bit depth : 8 bits
    Scan type : Progressive
    Bits/(Pixel*Frame) : 0.110
    Stream size : 1.53 GiB (92%)
    Writing library : x264 core 146 r2538 121396c
    Encoding settings : cabac=1/ref=11/deblock=1: -1: -1/analyse=0x3: 0x133/me=umh/subme=9/psy=1/psy_rd=1.00: 0.20/mixed_ref=1/me_range=24/chroma_me=1/trellis=2/8x8dct=1/cqm=0/deadzone=21, 11/fast_pskip=1/chroma_qp_offset=-3/threads=3/lookahead_threads=1/sliced_threads=0/nr=0/decimate=1/interlaced=0/bluray_compat=0/constrained_intra=0/bframes=4/b_pyramid=2/b_adapt=2/b_bias=0/direct=3/weightb=1/open_gop=0/weightp=2/keyint=240/keyint_min=24/scenecut=40/intra_refresh=0/rc_lookahead=60/rc=crf/mbtree=1/crf=21.0/qcomp=0.60/qpmin=0/qpmax=69/qpstep=4/ip_ratio=1.40/aq=1: 0.10
    Encoded date : UTC 2015-05-17 05: 05: 32
    Tagged date : UTC 2015-05-17 05: 40: 06
    Audio
    ID : 2
    Format : AAC
    Format/Info : Advanced Audio Codec
    Format profile : LC
    Codec ID : 40
    Duration : 2h 2mn
    Bit rate mode : Variable
    Bit rate : 150 Kbps
    Maximum bit rate : 237 Kbps
    Channel count : 2 channels
    Channel positions : Front: L R
    Sampling rate : 44.1 KHz
    Compression mode : Lossy
    Stream size : 131 MiB (8%)
    Language : Russian
    Encoded date : UTC 2015-05-17 05: 39: 32
    Tagged date : UTC 2015-05-17 05: 40: 06

    Скриншоты


    Залил: KinoGadget

    Онлайн видео Битва за Севастополь (2015) BDRip 720p от KinoGadget


    Размер скачиваемого торрента: 1.67 GB (1789468444 Bytes)

    Битва за Севастополь (2015) BDRip 720p от KinoGadget | iPad
    загрузка...
    Рейтинг →
     (голосов: 1, оценка 4/5, голосовать можно 1 раз )

    Другие торренты по теме:

  • Битва экстрасенсов (2012) SATRip торрент скачать бесплатно
  • Demigod. Битвы богов (2009) PC | RePack от R.G. Механики торрент скачать бесплатно
  • Битва за планету Терра / Battle for Terra (2007) BDRip 1080p торрент скачать бесплатно
  • Birth of America: Битва за независимость (2006) PC | Лицензия торрент скачать бесплатно
  • Сталинград. Битва миров. Фильм Леонида Млечина (2013) IPTVRip торрент скачать бесплатно
  • Сталинградская битва SATRip торрент скачать бесплатно
  • Инопланетное вторжение: Битва за Лос-Анджелес / Battle: Los Angeles (2011) HDRip-AVC торрент скачать бесплатно
  • Битва на ножах / Knife Fight (2012) WEB-DLRip | Unrated | P торрент скачать бесплатно


    • Комментарии (0):

      Информация

      Информация

        Посетители, находящиеся в группе Гости, не могут оставлять комментарии в данной новости.

        ↓ Меню



        ↓ Опрос

        А Вы добавили сайт в закладки?
        Да
        Не


        Top 10 за неделю (Фильмы)