.
Авторизация | Регистрация
Хочешь лучшие торренты? Добавь свой email!
Добавить
» » Дневник памяти / The Notebook (2004) BDRip-AVC от Scarabey | D, P, A торрент скачать бесплатно




    Дневник памяти / The Notebook (2004) BDRip-AVC от Scarabey | D, P, A торрент скачать бесплатно

    Опубликовал: Админ | Дата: 30-05-2015, 21:02 | Просмотров: 145


    Создали в: 2004
    Снималось в: США
    Категория жанра: драма, мелодрама
    Время просмотра:
    Перевод текста 1: Профессиональный (полное дублирование) Лицензия
    Перевод текста 2: Профессиональный (многоголосый, закадровый)
    Перевод текста 3: Профессиональный (многоголосый, закадровый) НТВ+
    Перевод текста 4: Профессиональный (многоголосый, закадровый) ТВ3
    Перевод текста 5: Авторский (одноголосый, закадровый) Рудой ТВ3
    Оригинальная аудиодорожка: английский
    Субтитры подготовлены: есть - русские и англ. - полные
    Главный режиссер: Ник Кассаветис/Nick Cassavetes

    Актеры
    Райан Гослинг, Рэйчел МакАдамс, Джеймс Гарнер, Джина Роулендс, Сэм Шепард, Джоан Аллен, Дэвид Торнтон, Джеймс Марсден, Кевин Коннолли, Тим Айви

    Описание фильма
    Трогательная история любви, прочитанная пожилым мужчиной из старой записной книжки женщине в доме престарелых. Это история отношений юноши и девушки из разных социальных слоев, живших в Северной Каролине. Ной и Элли провели вместе незабываемое лето, пока их не разделили вначале родители, а затем Вторая мировая война.
    После войны все изменилось: Элли обручилась с удачливым бизнесменом, а Ной жил наедине со своими воспоминаниями в старинном доме, который ему удалось отреставрировать. Когда Элли прочла об этом в местной газете, она поняла: ей нужно найти его и решить наконец судьбу их любви…
    Качество фильма видео: BDRip-AVC
    Тип видео видео: MKV
    Информация о видео: 1008x432 pixels (2.35: 1) at 23.976 fps, AVC at 2300 Kbps, 0.220 bit/pixel
    Информация о звуке №1: 48 kHz, AC3 Dolby Digital, 3/2 (L, C, R, l, r) + LFE ch, 640 kbps - дубляж
    Информация о звуке №2: 48 kHz, AC3 Dolby Digital, 3/2 (L, C, R, l, r) + LFE ch, ~448 kbps - проф. многоголоска
    Информация о звуке №3: 48 kHz, AC3 Dolby Digital, 2/0 (L, R) ch, ~192.00 kbps avg - проф. многоголоска НТВ+
    Информация о звуке №4: 48 kHz, AC3 Dolby Digital, 2/0 (L, R) ch, ~192.00 kbps avg - проф. многоголоска ТВ3
    Информация о звуке №5: 48 kHz, AC3 Dolby Digital, 3/2 (L, C, R, l, r) + LFE ch, ~448 kbps - Оригинал
    Информация о звуке №6: 48 kHz, AC3 Dolby Digital, 3/2 (L, C, R, l, r) + LFE ch, ~448 kbps - Рудой
    Релиз подготовил:
    АНОНСЫ МОИХ РАЗДАЧ!

    Скриншоты

    MediaInfo
    Дневник памятиNotebook.2004_AVC_BDRip_scarabey.org.mkv
    Format : Matroska
    Format version : Version 4/Version 2
    File size : 4.04 GiB
    Duration : 2h 3mn
    Overall bit rate : 4 670 Kbps
    Encoded date : UTC 2015-05-25 14: 00: 38
    Writing application : mkvmerge v6.1.0 (;Old Devil;) built on Mar 4 2013 09: 10: 42
    Writing library : libebml v1.3.0 + libmatroska v1.4.0
    Video
    ID : 1
    Format : AVC
    Format/Info : Advanced Video Codec
    Format profile : High@L4.1
    Format settings, CABAC : Yes
    Format settings, ReFrames : 8 frames
    Codec ID : V_MPEG4/ISO/AVC
    Duration : 2h 3mn
    Bit rate : 2 300 Kbps
    Width : 1 008 pixels
    Height : 432 pixels
    Display aspect ratio : 2.35: 1
    Original display aspect ratio : 2.35: 1
    Frame rate mode : Constant
    Frame rate : 23.976 fps
    Color space : YUV
    Chroma subsampling : 4: 2: 0
    Bit depth : 8 bits
    Scan type : Progressive
    Bits/(Pixel*Frame) : 0.220
    Stream size : 1.91 GiB (47%)
    Writing library : x264 core 130 r2273 b3065e6
    Encoding settings : cabac=1/ref=8/deblock=1: -3: -2/analyse=0x3: 0x113/me=umh/subme=10/psy=1/psy_rd=1.00: 0.05/mixed_ref=1/me_range=32/chroma_me=1/trellis=2/8x8dct=1/cqm=0/deadzone=21, 11/fast_pskip=0/chroma_qp_offset=-3/threads=12/lookahead_threads=2/sliced_threads=0/nr=0/decimate=0/interlaced=0/bluray_compat=0/constrained_intra=0/bframes=8/b_pyramid=2/b_adapt=2/b_bias=0/direct=3/weightb=1/open_gop=0/weightp=2/keyint=240/keyint_min=24/scenecut=40/intra_refresh=0/rc_lookahead=40/rc=2pass/mbtree=1/bitrate=2300/ratetol=1.0/qcomp=0.60/qpmin=0/qpmax=69/qpstep=4/cplxblur=20.0/qblur=0.5/ip_ratio=1.40/aq=1: 1.00
    Default : Yes
    Forced : No
    Audio #1
    ID : 2
    Format : AC-3
    Format/Info : Audio Coding 3
    Mode extension : CM (complete main)
    Format settings, Endianness : Big
    Codec ID : A_AC3
    Duration : 2h 3mn
    Bit rate mode : Constant
    Bit rate : 640 Kbps
    Channel(s) : 6 channels
    Channel positions : Front: L C R, Side: L R, LFE
    Sampling rate : 48.0 KHz
    Bit depth : 16 bits
    Compression mode : Lossy
    Stream size : 567 MiB (14%)
    Title : Дубляж
    Language : Russian
    Default : Yes
    Forced : No
    Audio #2
    ID : 3
    Format : AC-3
    Format/Info : Audio Coding 3
    Mode extension : CM (complete main)
    Format settings, Endianness : Big
    Codec ID : A_AC3
    Duration : 2h 3mn
    Bit rate mode : Constant
    Bit rate : 448 Kbps
    Channel(s) : 6 channels
    Channel positions : Front: L C R, Side: L R, LFE
    Sampling rate : 48.0 KHz
    Bit depth : 16 bits
    Compression mode : Lossy
    Stream size : 397 MiB (10%)
    Title : Проф. многоголоска №1
    Language : Russian
    Default : No
    Forced : No
    Audio #3
    ID : 4
    Format : AC-3
    Format/Info : Audio Coding 3
    Mode extension : CM (complete main)
    Format settings, Endianness : Big
    Codec ID : A_AC3
    Duration : 2h 3mn
    Bit rate mode : Constant
    Bit rate : 192 Kbps
    Channel(s) : 2 channels
    Channel positions : Front: L R
    Sampling rate : 48.0 KHz
    Bit depth : 16 bits
    Compression mode : Lossy
    Stream size : 170 MiB (4%)
    Title : Проф. многоголоска - ТВ3
    Default : No
    Forced : No
    Audio #4
    ID : 5
    Format : AC-3
    Format/Info : Audio Coding 3
    Mode extension : CM (complete main)
    Format settings, Endianness : Big
    Codec ID : A_AC3
    Duration : 2h 3mn
    Bit rate mode : Constant
    Bit rate : 192 Kbps
    Channel(s) : 2 channels
    Channel positions : Front: L R
    Sampling rate : 48.0 KHz
    Bit depth : 16 bits
    Compression mode : Lossy
    Stream size : 170 MiB (4%)
    Title : Проф. многоголоска - НТВ+
    Language : Russian
    Default : No
    Forced : No
    Audio #5
    ID : 6
    Format : AC-3
    Format/Info : Audio Coding 3
    Mode extension : CM (complete main)
    Format settings, Endianness : Big
    Codec ID : A_AC3
    Duration : 2h 3mn
    Bit rate mode : Constant
    Bit rate : 448 Kbps
    Channel(s) : 6 channels
    Channel positions : Front: L C R, Side: L R, LFE
    Sampling rate : 48.0 KHz
    Bit depth : 16 bits
    Compression mode : Lossy
    Stream size : 397 MiB (10%)
    Title : Оригинал
    Language : English
    Default : No
    Forced : No
    Audio #6
    ID : 7
    Format : AC-3
    Format/Info : Audio Coding 3
    Mode extension : CM (complete main)
    Format settings, Endianness : Big
    Codec ID : A_AC3
    Duration : 2h 3mn
    Bit rate mode : Constant
    Bit rate : 448 Kbps
    Channel(s) : 6 channels
    Channel positions : Front: L C R, Side: L R, LFE
    Sampling rate : 48.0 KHz
    Bit depth : 16 bits
    Compression mode : Lossy
    Stream size : 397 MiB (10%)
    Title : Авторский - Рудой
    Language : Russian
    Default : No
    Forced : No
    Text #1
    ID : 8
    Format : UTF-8
    Codec ID : S_TEXT/UTF8
    Codec ID/Info : UTF-8 Plain Text
    Title : Русские полные субтитры
    Language : Russian
    Default : Yes
    Forced : No
    Text #2
    ID : 9
    Format : UTF-8
    Codec ID : S_TEXT/UTF8
    Codec ID/Info : UTF-8 Plain Text
    Title : Английские полные субтитры
    Language : English
    Default : No
    Forced : No




    Онлайн видео Дневник памяти


    Размер скачиваемого торрента: 4.04 GB (4336758426 Bytes)

    Дневник памяти/The Notebook (2004) BDRip-AVC от Scarabey | D, P, A
    загрузка...
    Рейтинг →
     (голосов: 1, оценка 4/5, голосовать можно 1 раз )

    Другие торренты по теме:

  • Дневник памяти / The Notebook (2004) BDRip 720p от marcury
  • Дневник памяти / The Notebook (2004) HDRip от Scarabey | D скачать через торрент бесплатно
  • Дневник памяти / The Notebook (2004) HDRip от Youtracker скачать через торрент бесплатно
  • Дневник памяти / The Notebook (2004) BDRip 1080p от denis 100 | D,P,A скачать через торрент бесплатно
  • Дневник памяти / The Notebook (2004) BDRip 720p от denis 100 | D,P,A
  • Дневник памяти / The Notebook (2004) BDRip-AVC | iPad | D скачать через торрент бесплатно
  • Дневник памяти / The Notebook (2004) HDRip от Scarabey | D скачать через торрент бесплатно
  • Дневник памяти / The Notebook (2004) BDRip 1080p от Scarabey | D


    • Комментарии (0):

      Информация

      Информация

        Посетители, находящиеся в группе Гости, не могут оставлять комментарии в данной новости.

        ↓ Меню



        ↓ Опрос

        А Вы добавили сайт в закладки?
        Да
        Не


        Top 10 за месяц (Фильмы)