.
Авторизация | Регистрация
Хочешь лучшие торренты? Добавь свой email!
Добавить
» » Агент Картер / Agent Carter (2015) WEB-DLRip | Невафильм торрент скачать бесплатно




    Агент Картер / Agent Carter (2015) WEB-DLRip | Невафильм торрент скачать бесплатно

    Опубликовал: Админ | Дата: 31-05-2015, 03:12 | Просмотров: 216


    Создали в: 2015
    Снималось в: США
    Категория жанра: Боевик, фантастика, драма
    Время просмотра: ~ 00: 42: 00
    Перевод текста: Полное дублирование Невафильм
    Главный режиссёр: Стивен Крегг, Луис Д’Эспозито, Питер Лето

    Актеры
    Хейли Этвелл, Джеймс Д’Арси, Чад Майкл Мюррэй, Энвер Гьокай, Ши Уигхэм, Линдси Фонсека, Бриджет Риган, Ральф Браун, Меган Фэй, Доминик Купер
    Описание: История Пегги Картер. В 1946 году мир нанес Пегги серьезный удар, когда она оказывается в неудобном для нее положении с возвращением домой мужчин со сражений за границей. Работая на секретную организацию СНР (Стратегический Научный Резерв), Пегги должна найти баланс между административной работой и секретными миссиями для Говарда Старка, одновременно пытаясь жить нормальной жизнью одинокой женщины в Америке после утраты любви всей ее жизни — Стива Роджерса.
    СЕМПЛ
    Качество фильма: WEB-DLRip 400p
    Тип видео: AVI
    Информация о видео кодек: XviD
    Информация о звуке кодек: MP3
    Информация о видео: 1533 Kbps, 720x400 (16: 9), 23.976 fps
    Информация о звуке: MP3, 48.0 KHz, 2 ch, 128 kbps RU
    Информация о звуке 2: MP3, 48.0 KHz, 2 ch, 128 kbps ENG
    Субтитры: русские, английские
    Дубляж приобретен за счет mrpooph и BS666 .Запись звука - xironfs .
    MediaInfo

    Общее
    Полное имя : D: ЗагрузкиAgent.Carter.S01.400pAgent.Carter.S01.E01.400p.avi
    Формат : AVI
    Формат/Информация : Audio Video Interleave
    Размер файла : 550 Мбайт
    Продолжительность : 42 м.
    Общий поток : 1803 Кбит/сек
    Программа кодирования : VirtualDubMod 1.5.10.2 (build 2540/release)
    Библиотека кодирования : VirtualDubMod build 2540/release
    Видео
    Идентификатор : 0
    Формат : MPEG-4 Visual
    Профиль формата : Advanced Simple@L5
    Параметр BVOP формата : 2
    Параметр QPel формата : Нет
    Параметр GMC формата : Без точки перехода
    Параметр матрицы формата : Default (MPEG)
    Идентификатор кодека : XVID
    Идентификатор кодека/Подсказка : XviD
    Продолжительность : 42 м.
    Битрейт : 1533 Кбит/сек
    Ширина : 720 пикселей
    Высота : 400 пикселей
    Соотношение сторон : 16: 9
    Частота кадров : 23, 976 кадра/сек
    Цветовое пространство : YUV
    Субдискретизация насыщенности : 4: 2: 0
    Битовая глубина : 8 бит
    Тип развёртки : Прогрессивная
    Метод сжатия : С потерями
    Бит/(Пиксели*Кадры) : 0.222
    Размер потока : 467 Мбайт (85%)
    Библиотека кодирования : XviD 73
    Аудио #1
    Идентификатор : 1
    Формат : MPEG Audio
    Версия формата : Version 1
    Профиль формата : Layer 3
    Режим : Joint stereo
    Расширение режима : MS Stereo
    Идентификатор кодека : 55
    Идентификатор кодека/Подсказка : MP3
    Продолжительность : 42 м.
    Вид битрейта : Постоянный
    Битрейт : 128 Кбит/сек
    Каналы : 2 канала
    Частота : 48, 0 КГц
    Метод сжатия : С потерями
    Размер потока : 39, 0 Мбайт (7%)
    Выравнивание : Соединение по промежуткам
    Продолжительность промежутка : 42 мс. (1, 00 видеокадр)
    Время предзагрузки промежутка : 504 мс.
    Библиотека кодирования : LAME3.99r
    Залил: JIe6egeB

    Онлайн видео Агент Картер


    Размер скачиваемого торрента: 4.32 GB (4639349365 Bytes)


    Агент Картер/Agent Carter (2015) WEB-DLRip | Невафильм
    загрузка...
    Рейтинг →
     (голосов: 1, оценка 3/5, голосовать можно 1 раз )

    Другие торренты по теме:

  • Короткометражка Marvel: Агент Картер / Marvel One-Shot: Agent Carter (2013) BDRip-AVC | P
  • Агент Картер / Agent Carter (2013) BDRip 1080p скачать через торрент бесплатно
  • Агент Картер / Agent Carter (2015) WEB-DLRip от Scarabey | LostFilm скачать через торрент бесплатно
  • Агент Картер / Marvel Agent Carter (2014 - 2015) WEB-DL 1080p | LostFilm
  • Агент Картер / Agent Carter (2014-2015) WEB-DL 720p | LostFilm
  • Агент Картер / Agent Carter (2015) HDTVRip l L1 скачать через торрент бесплатно
  • Агент Картер / Marvel Agent Carter (2014 - 2015) WEB-DLRip 1080p | LostFilm
  • Агент Картер / Agent Carter (2015) HDTVRip l L1


    • Комментарии (0):

      Информация

      Информация

        Посетители, находящиеся в группе Гости, не могут оставлять комментарии в данной новости.

        ↓ Меню



        ↓ Опрос

        А Вы добавили сайт в закладки?
        Да
        Не


        Top 10 за месяц (Фильмы)