.
Авторизация | Регистрация
» » Зигмунд Колосовский (1946) DVDRip от New-Team скачать торрент бесплатно




    Зигмунд Колосовский (1946) DVDRip от New-Team скачать торрент бесплатно

    Опубликовал: Админ | Дата: 31-05-2015, 03:14 | Просмотров: 65


    Снималось в: СССР
    Создали в: Киевская киностудия
    Категория жанра: драма, военный
    Создали в: 1946
    Время просмотра: 01: 18: 32
    Перевод текста: Не требуется
    Субтитры подготовлены: нет
    Оригинальная аудиодорожка: русский
    Главный режиссер: Борис Дмоховский, Сигизмунд Навроцкий

    Актеры

    Борис Дмоховский, Владимир Освецимский, Владимир Шишкин, Дмитрий Голубинский, Чеслав Сушкевич, П. Скороход, Ирена Мурова, Алексей Добронравов, Б. Гончаров, Ганс Клеринг, Дмитрий Милютенко, Михаил Высоцкий, Михаил Роменский, Евгения Опалова, Сергей Петров, Алексей Таршин, М. Гродский, Михаил Романов, Борис Добронравов...
    Описание:
    Польский антифашист Зигмунд Големба, выдавая себя то за барона Федруччи, то за католического ксендза, взрывает немецкие штабы, освобождает пленных поляков, убивает гестаповских генералов. Его имя становится символом мести и ненависти к врагу…



    Источник: DVD5 R5
    Качество фильма видео: DVDRip
    Тип видео видео: AVI
    Информация о видео: 704x528 (4: 3), 25 fps, XviD ~ 1785 kbps avg, 0.192 bit/pixel
    Информация о звуке: 48 kHz, Dolby Digital AC3 2.0, 192 kbps
    Раздача от:
    MediaInfo

    Общее
    Полное имя : Zigmund.Kolosovskiy.1946.DVDRip_New-team_by_AVP_Studio.avi
    Формат : AVI
    Формат/Информация : Audio Video Interleave
    Размер файла : 1, 09 Гбайт
    Продолжительность : 1 ч. 18 м.
    Общий поток : 1986 Кбит/сек
    Программа кодирования : VirtualDubModRus 1.5.10.2 (build 2542/release)
    Библиотека кодирования : VirtualDubMod build 2542/release
    Видео
    Идентификатор : 0
    Формат : MPEG-4 Visual
    Профиль формата : Advanced Simple@L5
    Параметр BVOP формата : 1
    Параметр QPel формата : Нет
    Параметр GMC формата : Без точки перехода
    Параметр матрицы формата : Выборочная
    Идентификатор кодека : XVID
    Идентификатор кодека/Подсказка : XviD
    Продолжительность : 1 ч. 18 м.
    Битрейт : 1785 Кбит/сек
    Ширина : 704 пикселя
    Высота : 528 пикселей
    Соотношение сторон : 4: 3
    Частота кадров : 25, 000 кадров/сек
    Цветовое пространство : YUV
    Субдискретизация насыщенности : 4: 2: 0
    Битовая глубина : 8 бит
    Тип развёртки : Прогрессивная
    Метод сжатия : С потерями
    Бит/(Пиксели*Кадры) : 0.192
    Размер потока : 1003 Мбайт (90%)
    Библиотека кодирования : XviD 73
    Аудио
    Идентификатор : 1
    Формат : AC-3
    Формат/Информация : Audio Coding 3
    Расширение режима : CM (complete main)
    Параметр Endianness формата : Big
    Идентификатор кодека : 2000
    Продолжительность : 1 ч. 18 м.
    Вид битрейта : Постоянный
    Битрейт : 192 Кбит/сек
    Каналы : 2 канала
    Расположение каналов : Front: L R
    Частота : 48, 0 КГц
    Битовая глубина : 16 бит
    Метод сжатия : С потерями
    Размер потока : 108 Мбайт (10%)
    Выравнивание : Разделение по промежуткам
    Продолжительность промежутка : 40 мс. (1, 00 видеокадр)
    Время предзагрузки промежутка : 500 мс

    Скриншоты



    Залил: AVPStudio

    Онлайн видео Зигмунд Колосовский (1946) DVDRip от New


    Размер скачиваемого торрента: 1.09 GB (1170046976 Bytes)

    Зигмунд Колосовский (1946) DVDRip от New-Team
    загрузка...
    Рейтинг →
     (голосов: 1, оценка 5/5, голосовать можно 1 раз )

    Другие торренты по теме:

  • Зигмунд Колосовский (1946) DVDRip от New-Team скачать торрент бесплатно
  • Зигмунд Колосовский (1946) DVDRip-AVC от New-Team скачать торрент бесплатно
  • Зигмунд Колосовский (1946) HDRip | КПК скачать торрент бесплатно


    • Комментарии (0):

      Информация

      Информация

        Посетители, находящиеся в группе Гости, не могут оставлять комментарии в данной новости.

        ↓ Меню



        ↓ Опрос

        А Вы добавили сайт в закладки?
        Да
        Не


        Top 10 за неделю (Фильмы)