.
Авторизация | Регистрация
» » Пятый океан (1940) DVDRip от New-Team скачать торрент бесплатно




    Пятый океан (1940) DVDRip от New-Team скачать торрент бесплатно

    Опубликовал: Админ | Дата: 31-05-2015, 03:14 | Просмотров: 161


    Снималось в: СССР
    Создали в: Киевская киностудия
    Категория жанра: драма
    Создали в: 1940
    Время просмотра: 01: 13: 48
    Перевод текста: Не требуется
    Субтитры подготовлены: нет
    Оригинальная аудиодорожка: русский
    Главный режиссер: Исидор Анненский

    Актеры

    Евгения Горкуша, Андрей Абрикосов, Петр Алейников, Антон Дунайский, Василий Зайчиков, Анастасия Зуева, Алексей Максимов, Иван Новосельцев, Александра Попова, О. Шахет, Дмитрий Капка...
    Описание:
    В конце тридцатых годов мечтой советского человека было небо, воздушный океан. Десятки аэроклубов открывались по всей стране, через считанные месяцы их выпускники будут бомбить фрица на фанерных птицах. Охотник из тайги заканчивает летную школу и совершает первые боевые вылеты…




    Источник: DVD5 R5
    Качество фильма видео: DVDRip
    Тип видео видео: AVI
    Виде: 688x512 (4: 3), 25 fps, XviD ~ 1275 kbps avg, 0.145 bit/pixel
    Информация о звуке: 48 kHz, MP3 2.0, 128 kbps
    Раздача от:
    MediaInfo

    Общее
    Полное имя : Pyatyy.okean.1940.DVDRip-745_New-team_by_AVP_Studio.avi
    Формат : AVI
    Формат/Информация : Audio Video Interleave
    Размер файла : 746 Мбайт
    Продолжительность : 1 ч. 13 м.
    Общий поток : 1413 Кбит/сек
    Программа кодирования : VirtualDubModRus 1.5.10.2 (build 2542/release)
    Библиотека кодирования : VirtualDubMod build 2542/release
    Видео
    Идентификатор : 0
    Формат : MPEG-4 Visual
    Профиль формата : Advanced Simple@L5
    Параметр BVOP формата : 1
    Параметр QPel формата : Нет
    Параметр GMC формата : Без точки перехода
    Параметр матрицы формата : Выборочная
    Идентификатор кодека : XVID
    Идентификатор кодека/Подсказка : XviD
    Продолжительность : 1 ч. 13 м.
    Битрейт : 1275 Кбит/сек
    Ширина : 688 пикселей
    Высота : 512 пикселей
    Соотношение сторон : 4: 3
    Частота кадров : 25, 000 кадров/сек
    Цветовое пространство : YUV
    Субдискретизация насыщенности : 4: 2: 0
    Битовая глубина : 8 бит
    Тип развёртки : Прогрессивная
    Метод сжатия : С потерями
    Бит/(Пиксели*Кадры) : 0.145
    Размер потока : 673 Мбайт (90%)
    Библиотека кодирования : XviD 73
    Аудио
    Идентификатор : 1
    Формат : MPEG Audio
    Версия формата : Version 1
    Профиль формата : Layer 3
    Идентификатор кодека : 55
    Идентификатор кодека/Подсказка : MP3
    Продолжительность : 1 ч. 13 м.
    Вид битрейта : Постоянный
    Битрейт : 128 Кбит/сек
    Каналы : 2 канала
    Частота : 48, 0 КГц
    Метод сжатия : С потерями
    Размер потока : 67, 6 Мбайт (9%)
    Выравнивание : Соединение по промежуткам
    Продолжительность промежутка : 40 мс. (1, 00 видеокадр)
    Время предзагрузки промежутка : 504 мс.
    Библиотека кодирования : LAME3.99r
    Залил: AVPStudio

    Онлайн видео Пятый океан (1940) DVDRip от New


    Размер скачиваемого торрента: 745.90 MB (782131200 Bytes)


    Пятый океан (1940) DVDRip от New-Team
    загрузка...
    Рейтинг →
     (голосов: 1, оценка 5/5, голосовать можно 1 раз )

    Другие торренты по теме:

  • Острогин Макс - Inferno. Книга пятая. Здравствуй, брат, умри (2012) MP3 торрент скачать бесплатно
  • Отличный Новый год на Пятом. Российский музыкальный хит-парад интернета (2013) TVRip торрент скачать бесплатно
  • Бойня номер пять / Slaughterhouse-Five (1972) WEB-DLRip от Rulya74 торрент скачать бесплатно
  • Будь моим парнем на пять минут / Nick and Norahs Infinite Playlist (2008) BDRip 1080p от NoLimits-Team торрент скачать бесплатно
  • Пять минаретов в Нью-Йорке / Five Minarets in New York (2010) BDRip-AVC от NovaLan торрент скачать бесплатно
  • Пятая стража (2013) SATRip-AVC торрент скачать бесплатно
  • Пять легких пьес / Five Easy Pieces (1970) BDRip-AVC от MediaClub | P, P2 торрент скачать бесплатно
  • Блаженство с пятой восточной / The Trouble with Bliss (2011) DVDRip | L1 торрент скачать бесплатно


    • Комментарии (0):

      Информация

      Информация

        Посетители, находящиеся в группе Гости, не могут оставлять комментарии в данной новости.

        ↓ Меню



        ↓ Опрос

        А Вы добавили сайт в закладки?
        Да
        Не


        Top 10 за неделю (Фильмы)

        Мой парень – киллер / Mr. Right (2015) WEB-DL 1080p | L скачать торрент бесплатно

        (просмотров: 331)
        Ёлки 5 (2016) WEB-DLRip скачать торрент бесплатно

        (просмотров: 331)
        Разрушение / Demolition (2015) BDRemux 1080p от ExKinoRay | L скачать торрент бесплатно

        (просмотров: 301)
        Экипаж (2016) BDRip от New-Team | D | Лицензия скачать торрент бесплатно
        АНОНСЫ МОИХ РАЗДАЧ
        (просмотров: 301)
        Экипаж (2016) BDRip от New-Team | D | Лицензия скачать торрент бесплатно
        АНОНСЫ МОИХ РАЗДАЧ
        (просмотров: 271)
        Гений / Genius (2016) WEB-DLRip 1080p | Звук TS скачать торрент бесплатно

        (просмотров: 161)
        Кухня (1-5 сезоны: 1-100 серии из 100 + 2 бонуса) / 2012-2015 / РУ / DVDRip, WEB-DLRip скачать торрент бесплатно

        (просмотров: 151)
        Кухня (2015) SATRip скачать торрент бесплатно
        Кухня ? Кухня (2015) SATRip скачать торрент бесплатно
        (просмотров: 141)
        Дуэлянт (2016) WEB-DLRip от Scarabey | iTunes скачать торрент бесплатно

        (просмотров: 131)
        Демон внутри / Вскрытие Джейн Доу / The Autopsy of Jane Doe (2016) WEB-DLRip от Scarabey | P скачать торрент бесплатно
        Мы В КОНТАКТЕ =)
        (просмотров: 111)