.
Авторизация | Регистрация
» » Зигмунд Колосовский (1946) DVDRip от New-Team скачать торрент бесплатно




    Зигмунд Колосовский (1946) DVDRip от New-Team скачать торрент бесплатно

    Опубликовал: Админ | Дата: 31-05-2015, 15:03 | Просмотров: 72


    Снималось в: СССР
    Создали в: Киевская киностудия
    Категория жанра: драма, военный
    Создали в: 1946
    Время просмотра: 01: 18: 32
    Перевод текста: Не требуется
    Субтитры подготовлены: нет
    Оригинальная аудиодорожка: русский
    Главный режиссер: Борис Дмоховский, Сигизмунд Навроцкий

    Актеры

    Борис Дмоховский, Владимир Освецимский, Владимир Шишкин, Дмитрий Голубинский, Чеслав Сушкевич, П. Скороход, Ирена Мурова, Алексей Добронравов, Б. Гончаров, Ганс Клеринг, Дмитрий Милютенко, Михаил Высоцкий, Михаил Роменский, Евгения Опалова, Сергей Петров, Алексей Таршин, М. Гродский, Михаил Романов, Борис Добронравов...
    Описание:
    Польский антифашист Зигмунд Големба, выдавая себя то за барона Федруччи, то за католического ксендза, взрывает немецкие штабы, освобождает пленных поляков, убивает гестаповских генералов. Его имя становится символом мести и ненависти к врагу…



    Источник: DVD5 R5
    Качество фильма видео: DVDRip
    Тип видео видео: AVI
    Информация о видео: 640x480 (4: 3), 25 fps, XviD ~ 1190 kbps avg, 0.155 bit/pixel
    Информация о звуке: 48 kHz, MP3 2.0, 128 kbps
    Раздача от:
    MediaInfo

    Общее
    Полное имя : Zigmund.Kolosovskiy.1946.DVDRip-745_New-team_by_AVP_Studio.avi
    Формат : AVI
    Формат/Информация : Audio Video Interleave
    Размер файла : 746 Мбайт
    Продолжительность : 1 ч. 18 м.
    Общий поток : 1328 Кбит/сек
    Программа кодирования : VirtualDubModRus 1.5.10.2 (build 2542/release)
    Библиотека кодирования : VirtualDubMod build 2542/release
    Видео
    Идентификатор : 0
    Формат : MPEG-4 Visual
    Профиль формата : Advanced Simple@L5
    Параметр BVOP формата : 1
    Параметр QPel формата : Нет
    Параметр GMC формата : Без точки перехода
    Параметр матрицы формата : Выборочная
    Идентификатор кодека : XVID
    Идентификатор кодека/Подсказка : XviD
    Продолжительность : 1 ч. 18 м.
    Битрейт : 1190 Кбит/сек
    Ширина : 640 пикселей
    Высота : 480 пикселей
    Соотношение сторон : 4: 3
    Частота кадров : 25, 000 кадров/сек
    Цветовое пространство : YUV
    Субдискретизация насыщенности : 4: 2: 0
    Битовая глубина : 8 бит
    Тип развёртки : Прогрессивная
    Метод сжатия : С потерями
    Бит/(Пиксели*Кадры) : 0.155
    Размер потока : 668 Мбайт (90%)
    Библиотека кодирования : XviD 73
    Аудио
    Идентификатор : 1
    Формат : MPEG Audio
    Версия формата : Version 1
    Профиль формата : Layer 3
    Идентификатор кодека : 55
    Идентификатор кодека/Подсказка : MP3
    Продолжительность : 1 ч. 18 м.
    Вид битрейта : Постоянный
    Битрейт : 128 Кбит/сек
    Каналы : 2 канала
    Частота : 48, 0 КГц
    Метод сжатия : С потерями
    Размер потока : 71, 9 Мбайт (10%)
    Выравнивание : Соединение по промежуткам
    Продолжительность промежутка : 40 мс. (1, 00 видеокадр)
    Время предзагрузки промежутка : 504 мс.
    Библиотека кодирования : LAME3.99r
    Залил: AVPStudio

    Онлайн видео Зигмунд Колосовский (1946) DVDRip от New


    Размер скачиваемого торрента: 745.70 MB (781924352 Bytes)


    Зигмунд Колосовский (1946) DVDRip от New-Team
    загрузка...
    Рейтинг →
     (голосов: 1, оценка 3/5, голосовать можно 1 раз )

    Другие торренты по теме:

  • Зигмунд Колосовский (1946) DVDRip от New-Team скачать торрент бесплатно
  • Зигмунд Колосовский (1946) DVDRip-AVC от New-Team скачать торрент бесплатно
  • Зигмунд Колосовский (1946) HDRip | КПК скачать торрент бесплатно


    • Комментарии (0):

      Информация

      Информация

        Посетители, находящиеся в группе Гости, не могут оставлять комментарии в данной новости.

        ↓ Меню



        ↓ Опрос

        А Вы добавили сайт в закладки?
        Да
        Не


        Top 10 за неделю (Фильмы)