.
Авторизация | Регистрация
» » 22 минуты (2014) BDRip 720p от KinoGadget | iPad скачать торрент бесплатно




    22 минуты (2014) BDRip 720p от KinoGadget | iPad скачать торрент бесплатно

    Опубликовал: Админ | Дата: 31-05-2015, 15:03 | Просмотров: 126


    Создали в: 2014
    Снималось в: Россия
    Категория жанра: боевик
    Время просмотра: 01: 22: 48
    Перевод текста: Оригинал (русский)
    Главный режиссер: Василий Сериков

    Актеры
    Макар Запорожский, Денис Никифоров, Виктор Сухоруков, Екатерина Маликова, Гаэль Камилинди, Александр Галибин, Владислав Дёмин, Ибрагим Тооре, Софья Козко, Иван Породнов
    Описание: Морпех — первогодок Саня Ежов оказывается среди пиратов на захваченном танкере. Он знает — товарищи не бросят. Ему нужно выжить и помочь своим, когда начнется штурм. Фильм основан на реальных событиях 5 мая 2010 года, когда морские пехотинцы БПК Маршал Шапошников освободили захваченный в водах Аденского залива российский танкер Московский университет. У них было только 22 минуты без права на ошибку…

    Информация о видео кодек: MPEG-4 AVC
    Качество фильма: BDRip 720p
    Параметры Видео: 1280x534, 24.000 fps; ~2 283 kbps avg
    Параметры Звука: 48.0 KHz, AAC, ~192.00 kbps avg, 2ch
    Тип видео: mp4
    Автор рипа:
    Релиз-группа:

    Meta Tags


    MI
    General
    Complete name : E: 22.minuty.2014.O.BDRip.720p_KinoGadget.mp4
    Format : MPEG-4
    Format profile : Base Media
    Codec ID : isom
    File size : 1.44 GiB
    Duration : 1h 22mn
    Overall bit rate mode : Variable
    Overall bit rate : 2 483 Kbps
    Movie name : 22 минуты
    Performer : Василий Сериков
    Genre : Action, Crime
    ContentType : Short Film
    Recorded date : 2014
    Encoded date : UTC 2015-05-29 23: 03: 19
    Tagged date : UTC 2015-05-31 06: 48: 53
    Cover : Yes
    LongDeion : Морпех — первогодок Саня Ежов оказывается среди пиратов на захваченном танкере. Он знает — товарищи не бросят. Ему нужно выжить и помочь своим, когда начнется штурм. Фильм основан на реальных событиях 5 мая 2010 года, когда морские пехотинцы БПК Маршал Шапошников освободили захваченный в водах Аденского залива российский танкер Московский университет. У них было только 22 минуты без права на ошибку…
    HDVideo : Yes
    Video
    ID : 1
    Format : AVC
    Format/Info : Advanced Video Codec
    Format profile : High@L4.1
    Format settings, CABAC : Yes
    Format settings, ReFrames : 11 frames
    Codec ID : avc1
    Codec ID/Info : Advanced Video Coding
    Duration : 1h 22mn
    Bit rate : 2 283 Kbps
    Maximum bit rate : 12.8 Mbps
    Width : 1 280 pixels
    Height : 534 pixels
    Display aspect ratio : 2.40: 1
    Frame rate mode : Constant
    Frame rate : 24.000 fps
    Color space : YUV
    Chroma subsampling : 4: 2: 0
    Bit depth : 8 bits
    Scan type : Progressive
    Bits/(Pixel*Frame) : 0.139
    Stream size : 1.32 GiB (92%)
    Writing library : x264 core 125 r2200 999b753
    Encoding settings : cabac=1/ref=11/deblock=1: -1: -1/analyse=0x3: 0x133/me=umh/subme=9/psy=1/psy_rd=1.00: 0.00/mixed_ref=1/me_range=24/chroma_me=1/trellis=2/8x8dct=1/cqm=0/deadzone=21, 11/fast_pskip=1/chroma_qp_offset=-2/threads=1/lookahead_threads=1/sliced_threads=0/nr=0/decimate=1/interlaced=0/bluray_compat=0/constrained_intra=0/bframes=4/b_pyramid=2/b_adapt=2/b_bias=0/direct=3/weightb=1/open_gop=0/weightp=2/keyint=250/keyint_min=23/scenecut=40/intra_refresh=0/rc_lookahead=60/rc=crf/mbtree=1/crf=21.0/qcomp=0.60/qpmin=0/qpmax=69/qpstep=4/ip_ratio=1.40/aq=1: 1.00
    Encoded date : UTC 2015-05-29 23: 03: 19
    Tagged date : UTC 2015-05-29 23: 08: 19
    Audio
    ID : 2
    Format : AAC
    Format/Info : Advanced Audio Codec
    Format profile : LC
    Codec ID : 40
    Duration : 1h 22mn
    Bit rate mode : Variable
    Bit rate : 192 Kbps
    Maximum bit rate : 212 Kbps
    Channel count : 2 channels
    Original Channel count : 6 channels
    Channel positions : Front: L C R, Side: L R, LFE
    Sampling rate : 48.0 KHz
    Compression mode : Lossy
    Delay relative to video : 83ms
    Stream size : 113 MiB (8%)
    Encoded date : UTC 2015-05-29 23: 08: 03
    Tagged date : UTC 2015-05-29 23: 08: 19

    Скриншоты


    Залил: KinoGadget

    Онлайн видео 22 минуты (2014) BDRip 720p от KinoGadget


    Размер скачиваемого торрента: 1.44 GB (1541770940 Bytes)

    22 минуты (2014) BDRip 720p от KinoGadget | iPad
    загрузка...
    Рейтинг →
     (голосов: 1, оценка 4/5, голосовать можно 1 раз )

    Другие торренты по теме:

  • 88 минут / 88 Minutes (2006) HDRip от Youtracker торрент скачать бесплатно
  • Будь моим парнем на пять минут / Nick and Norahs Infinite Playlist (2008) BDRip 1080p от NoLimits-Team торрент скачать бесплатно
  • 90 минут / 90 minutter / 90 Minutes (2012) HDRip | L1 торрент скачать бесплатно
  • Светлой памяти павших в борьбе против фашизма. Минута молчания (2013) HDTV 1080i торрент скачать бесплатно
  • Семь минут на небесах / Seven minutes in heaven (1985) DVDRip | A торрент скачать бесплатно
  • 88 минут / 88 Minutes (2006) HDRip от Scarabey | Р торрент скачать бесплатно
  • Будь моим парнем на пять минут / Nick and Norahs Infinite Playlist (2008) HDRip от Scarabey | D торрент скачать бесплатно
  • Минута славы. Дорога на Олимп! (2013) SATRip скачать через торрент бесплатно


    • Комментарии (0):

      Информация

      Информация

        Посетители, находящиеся в группе Гости, не могут оставлять комментарии в данной новости.

        ↓ Меню



        ↓ Опрос

        А Вы добавили сайт в закладки?
        Да
        Не


        Top 10 за неделю (Фильмы)