.
Авторизация | Регистрация




Клятва (1946) DVDRip от New-Team скачать торрент бесплатно

Опубликовал: Админ | Дата: 31-05-2015, 17:50 | Просмотров: 142


Снималось в: СССР
Создали в: Тбилисская киностудия
Категория жанра: драма
Создали в: 1946
Время просмотра: 1: 48: 10
Перевод текста: Не требуется
Субтитры подготовлены: нет
Оригинальная аудиодорожка: русский
Главный режиссер: Михаил Чиаурели

Актеры

Михаил Геловани, Софья Гиацинтова, Николай Боголюбов, Дмитрий Павлов, С. Боголюбова, Николай Плотников, Тамара Макарова, Вадим Захарченко, Владимир Соловьев, Сергей Блинников, Гурам Сагарадзе, Асад Исматов, Владимир Балашов, Максим Штраух, Александр Хвыля, Владимир Марута, Эммануил Апхаидзе...
Описание:
Зимой 1924 года большевик Степан Петров с женой Варварой и дочерью Ольгой идут пешком в Москву, чтобы передать Ленину письмо от земляков. В степи путников настигает кулацкая банда. Степан погибает, но Варвара с дочерью продолжают свой путь. С группой других ходоков, они попадают в Горки, где узнают о смерти Ленина. Герои идут на Красную площадь. Сталин поднимается на трибуну и произносит клятву верности заветам Ленина, после чего Варвара Петрова протягивает ему письмо. Когда начнется война Варвара Михайловна пошлет своих детей защищать Родину. После войны под сводами Георгиевского дворца произойдет вторая встреча Петровой и Сталина.
Золотая медаль на МКФ в Венеции(1946 г.), Сталинская премия I степени(1947 г.)



Источник: DVD5 R5
Качество фильма видео: DVDRip
Тип видео видео: AVI
Информация о видео: 576x432 (4: 3), 25 fps, XviD ~ 827 kbps avg, 0.133 bit/pixel
Информация о звуке: 48 kHz, MP3 2.0, 128 kbps
Раздача от:
MediaInfo

Общее
Полное имя : Klyatva.1946.DVDRip-745_New-team_by_AVP_Studio.avi
Формат : AVI
Формат/Информация : Audio Video Interleave
Размер файла : 746 Мбайт
Продолжительность : 1 ч. 48 м.
Общий поток : 965 Кбит/сек
Программа кодирования : VirtualDubModRus 1.5.10.2 (build 2542/release)
Библиотека кодирования : VirtualDubMod build 2542/release
Видео
Идентификатор : 0
Формат : MPEG-4 Visual
Профиль формата : Advanced Simple@L5
Параметр BVOP формата : 1
Параметр QPel формата : Нет
Параметр GMC формата : Без точки перехода
Параметр матрицы формата : Выборочная
Идентификатор кодека : XVID
Идентификатор кодека/Подсказка : XviD
Продолжительность : 1 ч. 48 м.
Битрейт : 827 Кбит/сек
Ширина : 576 пикселей
Высота : 432 пикселя
Соотношение сторон : 4: 3
Частота кадров : 25, 000 кадров/сек
Цветовое пространство : YUV
Субдискретизация насыщенности : 4: 2: 0
Битовая глубина : 8 бит
Тип развёртки : Прогрессивная
Метод сжатия : С потерями
Бит/(Пиксели*Кадры) : 0.133
Размер потока : 640 Мбайт (86%)
Библиотека кодирования : XviD 73
Аудио
Идентификатор : 1
Формат : MPEG Audio
Версия формата : Version 1
Профиль формата : Layer 3
Идентификатор кодека : 55
Идентификатор кодека/Подсказка : MP3
Продолжительность : 1 ч. 48 м.
Вид битрейта : Постоянный
Битрейт : 128 Кбит/сек
Каналы : 2 канала
Частота : 48, 0 КГц
Метод сжатия : С потерями
Размер потока : 99, 0 Мбайт (13%)
Выравнивание : Соединение по промежуткам
Продолжительность промежутка : 40 мс. (1, 00 видеокадр)
Время предзагрузки промежутка : 504 мс.
Библиотека кодирования : LAME3.99r
Залил: AVPStudio

Онлайн видео Клятва (1946) DVDRip от New


Размер скачиваемого торрента: 746.48 MB (782743552 Bytes)


Клятва (1946) DVDRip от New-Team
загрузка...
Рейтинг →
 (голосов: 1, оценка 5/5, голосовать можно 1 раз )

Другие торренты по теме:

  • Клятва / The Vow (2012) BDRip-AVC | iPad торрент скачать бесплатно
  • Клятва богини Кали / Kasam Kali Ki (1991) SATRip от Files-x | P торрент скачать бесплатно
  • Клятва / The Vow (2012) BDRip-AVC от leonardo 59 Scarabey | Лицензия скачать через торрент бесплатно
  • Клятва / The Vow (2012) BDRip 720p от leonardo 59 Scarabey | Лицензия скачать через торрент бесплатно
  • Клятва молчания / Sworn to Silence / An Amish Murder (2013) WEB-DL 720p от CINEMANIA | Elrom скачать через торрент бесплатно
  • Клятва молчания / An Amish Murder (2013) WEB-DLRip от BitTracker скачать через торрент бесплатно
  • Клятва молчания / Sworn to Silence / An Amish Murder (2013) WEB-DLRip | Elrom скачать через торрент бесплатно
  • Клятва / Wu Ji / The Promise (2005) HDRip от Scarabey | P2 торрент скачать бесплатно


    • Комментарии (0):

      Информация

      Информация

        Посетители, находящиеся в группе Гости, не могут оставлять комментарии в данной новости.

        ↓ Меню



        ↓ Опрос

        А Вы добавили сайт в закладки?
        Да
        Не


        Top 10 за неделю (Фильмы)