.
Авторизация | Регистрация
Хочешь лучшие торренты? Добавь свой email!
Добавить
» » Страховщик / Automata (2014) BDRip от 0ptimus | D | RUS Transfer торрент скачать бесплатно




    Страховщик / Automata (2014) BDRip от 0ptimus | D | RUS Transfer торрент скачать бесплатно

    Опубликовал: Админ | Дата: 31-05-2015, 17:50 | Просмотров: 86


    Страховщик
    | Automata |

    Детально о кино
    Русское название: Страховщик
    Русское название в мировом прокате: Automata
    Создали в: 2014
    Категория жанра: фантастика, триллер
    Главный режиссер: Габе Ибаньес

    Актеры
    Антонио Бандерас, Биргитта Йорт Сёренсен, Мелани Гриффит, Дилан МакДермотт, Роберт Форстер, Тим МакИннерни, Энди Найман, Дэвид Райалл, Эндрю Тирнан, Криста Кэмпбелл

    Сюжет фильма
    2044-й год. После природной катастрофы население Земли уменьшилось до 21 миллиона человек. Большую часть суши теперь занимает радиоактивная пустыня, а выжившие скрываются в городах за высокими стенами и искусственными облаками, которые созданы с помощью роботов — Пилигримов. Главный герой фильма — страховой агент компании по изготовлению роботов Жак Вокан обнаруживает, что изобретаемые роботы создаются не для эксплуатации, а для истребления.

    Снималось в: Испания, Болгария
    Киностудия: Green Moon, Nu Boyana Viburno
    Время просмотра: 01: 45: 23
    Перевод текста: Дублированный
    Файл
    Кодек для видео: XviD
    Качество фильма: BDRip
    Информация о видео: 1586 Кбит/с, 720x304, 25.000 кадр/с
    Информация о звуке: АС3, 6 ch, 384 Кбит/с
    MediaInfo

    Полное имя : Automata.2014.XviD.BDRip.0ptimus.avi
    Формат : AVI
    Формат/Информация : Audio Video Interleave
    Размер файла : 1, 46 Гбайт
    Продолжительность : 1 ч. 45 м.
    Общий поток : 1980 Кбит/сек
    Название фильма : Страховщик | Automata 2014
    Жанр : фантастика, триллер
    Программа кодирования : VirtualDubMod 1.5.10.3 | www.virtualdub-fr.org || (build 2550/release)
    Формат оригинала/Имя : Movie
    Примечание : Дублированный
    Видео
    Идентификатор : 0
    Формат : MPEG-4 Visual
    Профиль формата : Advanced Simple@L5
    Параметр BVOP формата : 1
    Параметр QPel формата : Нет
    Параметр GMC формата : Без точки перехода
    Параметр матрицы формата : Выборочная
    Идентификатор кодека : XVID
    Идентификатор кодека/Подсказка : XviD
    Продолжительность : 1 ч. 45 м.
    Битрейт : 1586 Кбит/сек
    Ширина : 720 пикселей
    Высота : 304 пикселя
    Соотношение сторон : 2, 35: 1
    Частота кадров : 25, 000 кадров/сек
    Цветовое пространство : YUV
    Субдискретизация насыщенности : 4: 2: 0
    Битовая глубина : 8 бит
    Тип развёртки : Прогрессивная
    Метод сжатия : С потерями
    Бит/(Пиксели*Кадры) : 0.290
    Размер потока : 1, 17 Гбайт (80%)
    Библиотека кодирования : XviD 64
    Аудио
    Идентификатор : 1
    Формат : AC-3
    Формат/Информация : Audio Coding 3
    Расширение режима : CM (complete main)
    Параметр Endianness формата : Big
    Идентификатор кодека : 2000
    Продолжительность : 1 ч. 45 м.
    Вид битрейта : Постоянный
    Битрейт : 384 Кбит/сек
    Каналы : 6 каналов
    Расположение каналов : Front: L C R, Side: L R, LFE
    Частота : 48, 0 КГц
    Битовая глубина : 16 бит
    Метод сжатия : С потерями
    Размер потока : 289 Мбайт (19%)
    Выравнивание : Разделение по промежуткам
    Продолжительность промежутка : 40 мс. (1, 00 видеокадр)
    Время предзагрузки промежутка : 500 мс.
    Скриншоты



    Релиз подготовил:
    Залил: 0ptimus

    Онлайн видео Страховщик


    Размер скачиваемого торрента: 1.46 GB (1564649472 Bytes)

    Страховщик/Automata (2014) BDRip от 0ptimus | D | RUS Transfer
    загрузка...
    Рейтинг →
     (голосов: 1, оценка 5/5, голосовать можно 1 раз )

    Другие торренты по теме:

  • Страховщик (2014)
  • Страховщик / Automata скачать через торрент бесплатно
  • Страховщик / Autmata (2014) WEB-DLRip | L1
  • Страховщик / Autmata (2014) HDRip | Чистый звук
  • Страховщик / Autmata (2014) HDRip | Чистый звук
  • Страховщик / Automata (2014) BDRip 1080p | Чистый звук скачать через торрент бесплатно
  • Страховщик / Automata (2014) BDRip-AVC | Чистый звук
  • Страховщик / Automata (2014) BDRip 720p от Leonardo and Scarabey | Чистый звук


    • Комментарии (0):

      Информация

      Информация

        Посетители, находящиеся в группе Гости, не могут оставлять комментарии в данной новости.

        ↓ Меню



        ↓ Опрос

        А Вы добавили сайт в закладки?
        Да
        Не


        Top 10 за месяц (Фильмы)