.
Авторизация | Регистрация
Хочешь лучшие торренты? Добавь свой email!
Добавить
» » Опасное погружение / Pressure (2015) WEB-DLRip-AVC от Scarabey | iTunes торрент скачать бесплатно




    Опасное погружение / Pressure (2015) WEB-DLRip-AVC от Scarabey | iTunes торрент скачать бесплатно

    Опубликовал: Админ | Дата: 31-05-2015, 17:51 | Просмотров: 107


    Создали в: 2015
    Снималось в: Великобритания
    Категория жанра: триллер
    Время просмотра: 01: 31: 14
    Перевод текста: Профессиональный (полное дублирование) iTunes
    Субтитры подготовлены: нет
    Главный режиссер: Рон Скальпелло/Ron Scalpello

    Актеры
    Дэнни Хьюстон, Мэттью Гуд, Джо Коул, Алан МакКенна, Йен Пири, Дэйзи Лоу, Гемита Самарра, Ричард Битта

    Описание фильма
    Маленькая капсула с четырьмя водолазами застряла на дне восточноафриканских вод на глубине пяти километров. Кислорода с каждым вдохом становится все меньше, а надежда на чудесное спасение тает с каждой минутой. Брошенным на произвол судьбы, им ничего не остается, кроме как попытаться спастись своими силами, полагаясь лишь на собственную храбрость и отчаянное желание выжить.
    Качество фильма видео: WEB-DLRip-AVC
    Тип видео видео: AVI
    Информация о видео: AVC at 2080 Kbps, 1024 x 552, 24.000 fps, 0.153 bit/pixel
    Информация о звуке: 48 kHz, AC3 Dolby Digital, 3/2 (L, C, R, l, r) + LFE ch, ~384.00 kbps avg
    Релиз подготовил:
    АНОНСЫ МОИХ РАЗДАЧ!

    МедиаИнфо

    Опасное погружениеOpasnoe.pogruzhenie.2015_AVC_WEB-DLRip_scarabey.org.mkv
    Format : Matroska
    Format version : Version 2
    File size : 1.57 GiB
    Duration : 1h 31mn
    Overall bit rate : 2 464 Kbps
    Encoded date : UTC 2015-05-29 05: 53: 05
    Writing application : mkvmerge v6.1.0 (;Old Devil;) built on Mar 4 2013 09: 10: 42
    Writing library : libebml v1.3.0 + libmatroska v1.4.0
    Video
    ID : 1
    Format : AVC
    Format/Info : Advanced Video Codec
    Format profile : High@L4.1
    Format settings, CABAC : Yes
    Format settings, ReFrames : 8 frames
    Codec ID : V_MPEG4/ISO/AVC
    Duration : 1h 31mn
    Bit rate : 2 080 Kbps
    Width : 1 024 pixels
    Height : 552 pixels
    Display aspect ratio : 1.85: 1
    Original display aspect ratio : 1.85: 1
    Frame rate mode : Constant
    Frame rate : 24.000 fps
    Color space : YUV
    Chroma subsampling : 4: 2: 0
    Bit depth : 8 bits
    Scan type : Progressive
    Bits/(Pixel*Frame) : 0.153
    Stream size : 1.29 GiB (82%)
    Writing library : x264 core 138 r2356 a1d3d17
    Encoding settings : cabac=1/ref=8/deblock=1: -3: -2/analyse=0x3: 0x113/me=umh/subme=10/psy=1/psy_rd=1.00: 0.05/mixed_ref=1/me_range=32/chroma_me=1/trellis=2/8x8dct=1/cqm=0/deadzone=21, 11/fast_pskip=0/chroma_qp_offset=-3/threads=12/lookahead_threads=2/sliced_threads=0/nr=0/decimate=0/interlaced=0/bluray_compat=0/constrained_intra=0/bframes=8/b_pyramid=2/b_adapt=2/b_bias=0/direct=3/weightb=1/open_gop=0/weightp=2/keyint=240/keyint_min=24/scenecut=40/intra_refresh=0/rc_lookahead=40/rc=2pass/mbtree=1/bitrate=2080/ratetol=1.0/qcomp=0.60/qpmin=0/qpmax=69/qpstep=4/cplxblur=20.0/qblur=0.5/ip_ratio=1.40/aq=1: 1.00
    Default : Yes
    Forced : No
    Audio
    ID : 2
    Format : AC-3
    Format/Info : Audio Coding 3
    Mode extension : CM (complete main)
    Format settings, Endianness : Big
    Codec ID : A_AC3
    Duration : 1h 31mn
    Bit rate mode : Constant
    Bit rate : 384 Kbps
    Channel(s) : 6 channels
    Channel positions : Front: L C R, Side: L R, LFE
    Sampling rate : 48.0 KHz
    Bit depth : 16 bits
    Compression mode : Lossy
    Stream size : 251 MiB (16%)
    Default : Yes
    Forced : No



    Онлайн видео Опасное погружение


    Размер скачиваемого торрента: 1.57 GB (1685990290 Bytes)

    Опасное погружение/Pressure (2015) WEB-DLRip-AVC от Scarabey | iTunes
    загрузка...
    Рейтинг →
     (голосов: 1, оценка 4/5, голосовать можно 1 раз )

    Другие торренты по теме:

  • Опасное погружение (2015) HDRip
  • Опасное погружение / Pressure (2015) WEB-DL 720p | iTunes
  • Опасное погружение / Pressure (2015) WEB-DLRip | iTunes
  • Опасное погружение / Pressure (2015) WEB-DL 1080p | iTunes
  • Опасное погружение / Pressure (2015) WEB-DLRip от AleksSin | D | iTunes
  • Опасное погружение / Pressure (2015) WEB-DLRip от Scarabey | iTunes
  • Опасное погружение / Pressure (2015) WEB-DLRip от Scarabey | iTunes
  • Опасное погружение / Pressure (2015) Blu-Ray 1080p | D


    • Комментарии (0):

      Информация

      Информация

        Посетители, находящиеся в группе Гости, не могут оставлять комментарии в данной новости.

        ↓ Меню



        ↓ Опрос

        А Вы добавили сайт в закладки?
        Да
        Не


        Top 10 за месяц (Фильмы)