.
Авторизация | Регистрация
Хочешь лучшие торренты? Добавь свой email!
Добавить
» » Сладкий ноябрь / Sweet November (2001) WEB-DLRip-AVC от Scarabey | D торрент скачать бесплатно




    Сладкий ноябрь / Sweet November (2001) WEB-DLRip-AVC от Scarabey | D торрент скачать бесплатно

    Опубликовал: Админ | Дата: 31-05-2015, 17:51 | Просмотров: 120


    Создали в: 2001
    Снималось в: США
    Категория жанра: Мелодрама
    Время просмотра: 02: 00: 00
    Перевод текста: Профессиональный (полное дублирование) Лицензия
    Субтитры: есть (русские, английские)
    Главный режиссер: Пэт О;Коннор /Pat O;Connor

    Актеры
    Киану Ривз /Keanu Reeves/, Шарлиз Терон /Charlize Theron/, Джейсон Айзэкс /Jason Isaacs/, Грег Германн /Greg Germann/, Лайэм Эйкен /Liam Aiken/, Роберт Джой /Robert Joy/, Лорен Грэм /Lauren Graham/
    Описание: Затянутый в строгий костюм рекламный агент-трудоголик Нельсон Мосс бежит по жизни вприпрыжку и не представляет себе другого стиля жизни. Но живая эксцентричная Сара Дивер, наполовину - сооблазнительница, наполовину - философ, очень даже представляет. Если у нее получится, Нельсон станет ее новой победой в серии исправленных людских судеб. Каждый месяц она проводит с новы пациентом, которому требуется помощь. Никаких обязательств. Никакого давления. Никакой зависимости. И никакой влюбленности. Единственное, чего они не учли, - вероятность того, что они по-настоящему полюбят друг друга…
    Kачество: WEB-DLRip-AVC
    Тип видео: MKV
    Информация о видео: AVC, 1024х576 (2.4), at 23.976 fps, 0.177 bit/pixel
    Информация о звуке #1: AC-3 at 384 Кбит/сек, 6 каналов, 48, 0 КГц - дубляж
    Информация о звуке #2: AC-3 at 384 Кбит/сек, 6 каналов, 48, 0 КГц - оригинал
    Релиз подготовил:
    АНОНСЫ МОИХ РАЗДАЧ!

    MediaInfo

    Сладкий ноябрьSweet.November.2001_AVC_WEB-DLRip_scarabey.org.mkv
    Format : Matroska
    Format version : Version 4/Version 2
    File size : 2.75 GiB
    Duration : 2h 0mn
    Overall bit rate : 3 279 Kbps
    Encoded date : UTC 2015-05-25 21: 04: 10
    Writing application : mkvmerge v6.1.0 (;Old Devil;) built on Mar 4 2013 09: 10: 42
    Writing library : libebml v1.3.0 + libmatroska v1.4.0
    Video
    ID : 1
    Format : AVC
    Format/Info : Advanced Video Codec
    Format profile : High@L4.1
    Format settings, CABAC : Yes
    Format settings, ReFrames : 8 frames
    Codec ID : V_MPEG4/ISO/AVC
    Duration : 2h 0mn
    Bit rate : 2 510 Kbps
    Width : 1 024 pixels
    Height : 576 pixels
    Display aspect ratio : 16: 9
    Frame rate mode : Constant
    Frame rate : 23.976 fps
    Color space : YUV
    Chroma subsampling : 4: 2: 0
    Bit depth : 8 bits
    Scan type : Progressive
    Bits/(Pixel*Frame) : 0.177
    Stream size : 2.05 GiB (75%)
    Writing library : x264 core 130 r2273 b3065e6
    Encoding settings : cabac=1/ref=8/deblock=1: -3: -2/analyse=0x3: 0x113/me=umh/subme=10/psy=1/psy_rd=1.00: 0.05/mixed_ref=1/me_range=32/chroma_me=1/trellis=2/8x8dct=1/cqm=0/deadzone=21, 11/fast_pskip=0/chroma_qp_offset=-3/threads=12/lookahead_threads=2/sliced_threads=0/nr=0/decimate=0/interlaced=0/bluray_compat=0/constrained_intra=0/bframes=8/b_pyramid=2/b_adapt=2/b_bias=0/direct=3/weightb=1/open_gop=0/weightp=2/keyint=240/keyint_min=24/scenecut=40/intra_refresh=0/rc_lookahead=40/rc=2pass/mbtree=1/bitrate=2510/ratetol=1.0/qcomp=0.60/qpmin=0/qpmax=69/qpstep=4/cplxblur=20.0/qblur=0.5/ip_ratio=1.40/aq=1: 1.00
    Default : Yes
    Forced : No
    Audio #1
    ID : 2
    Format : AC-3
    Format/Info : Audio Coding 3
    Mode extension : CM (complete main)
    Format settings, Endianness : Big
    Codec ID : A_AC3
    Duration : 2h 0mn
    Bit rate mode : Constant
    Bit rate : 384 Kbps
    Channel(s) : 6 channels
    Channel positions : Front: L C R, Side: L R, LFE
    Sampling rate : 48.0 KHz
    Bit depth : 16 bits
    Compression mode : Lossy
    Stream size : 330 MiB (12%)
    Title : Дубляж
    Language : Russian
    Default : Yes
    Forced : No
    Audio #2
    ID : 3
    Format : AC-3
    Format/Info : Audio Coding 3
    Mode extension : CM (complete main)
    Format settings, Endianness : Big
    Codec ID : A_AC3
    Duration : 2h 0mn
    Bit rate mode : Constant
    Bit rate : 384 Kbps
    Channel(s) : 6 channels
    Channel positions : Front: L C R, Side: L R, LFE
    Sampling rate : 48.0 KHz
    Bit depth : 16 bits
    Compression mode : Lossy
    Stream size : 330 MiB (12%)
    Title : Оригинал
    Language : English
    Default : No
    Forced : No
    Text #1
    ID : 4
    Format : UTF-8
    Codec ID : S_TEXT/UTF8
    Codec ID/Info : UTF-8 Plain Text
    Title : Русские - полные
    Language : Russian
    Default : Yes
    Forced : No
    Text #2
    ID : 5
    Format : UTF-8
    Codec ID : S_TEXT/UTF8
    Codec ID/Info : UTF-8 Plain Text
    Title : Оригинал - полные
    Language : English
    Default : No
    Forced : No




    Онлайн видео Сладкий ноябрь


    Размер скачиваемого торрента: 2.75 GB (2956701097 Bytes)

    Сладкий ноябрь/Sweet November (2001) WEB-DLRip-AVC от Scarabey | D
    загрузка...
    Рейтинг →
     (голосов: 1, оценка 3/5, голосовать можно 1 раз )

    Другие торренты по теме:

  • Сладкий ноябрь / Sweet November (2001) WEB-DLRip 720p | D
  • Сладкий ноябрь / Sweet November (2001) WEB-DLRip от -=HD-NET=- | КПК | D скачать через торрент бесплатно
  • Сладкий ноябрь / Sweet November (2001)


    • Комментарии (0):

      Информация

      Информация

        Посетители, находящиеся в группе Гости, не могут оставлять комментарии в данной новости.

        ↓ Меню



        ↓ Опрос

        А Вы добавили сайт в закладки?
        Да
        Не


        Top 10 за месяц (Фильмы)