.
Авторизация | Регистрация




Дежа Вю / Deja Vu (1989) HDTVRip-AVC скачать торрент бесплатно

Опубликовал: Админ | Дата: 31-05-2015, 21:00 | Просмотров: 166


Детально о кино
Русское название: Дежа Вю
Русское название в мировом прокате: Deja Vu
Создали в: 1989
Категория жанра: Комедия
Главный режиссер: Юлиуш Махульский/Juliusz Machulski

Актеры
Ежи Штур, Галина Петрова, Николай Караченцов, Владимир Головин, Елизавета Махульская, Виктор Степанов, Олег Шкловский, Василий Мищенко, Всеволод Сафонов, Виталий Шаповалов, Войцех Высоцкий, Ян Махульский, Войцех Малайкат, Здислав Кузняр, Ян Пьешко, Анатолий Котенёв, Валерий Барда-Скляренко, Никита Высоцкий

Сюжет фильма

1925 год. В СССР - НЭП, в США - сухой закон. Мафия чикагских бутлегеров разыскивает некоего Мика Нича — Микиту Нечипорука, который оказался стукачом. Выясняется, что он сбежал в советскую Одессу, где открывает великий самогонный путь по доставке спиртных напитков по побережью Северного Ледовитого океана из России в Америку. Для ликвидации предателя нанимается знаменитый киллер — американский гангстер польского происхождения по фамилии Поллак. Под видом профессора-энтомолога, следующего на Суматру ловить бабочек, Поллак прибывает в Одессу, чтобы навестить могилу отца.
Снималось в: СССР, Польша
Время просмотра: 01: 44: 47
Перевод текста: не требуется
Файл
Кодек для видео: MKV
Качество фильма: HDTVRip-AVC
Информация о видео: MPEG-4 AVC, 3443 Кбит/с, 1152x694
Информация о звуке:
Аудио 1: AС3, 48 KHz, 2 ch, 192 kbps - Русский | VO * на места с англоязычной речью
Аудио 2: AС3, 48 KHz, 2 ch, 192 kbps - Русский, английский | Оригинал
Субтитры: русские, английские
Медиа-Инфо
Общее
Уникальный идентификатор : 233979722520135358097784584161517059356 (0xB006DAFB5E99027EBFAE1C68BB433D1C)
Полное имя : D: Дежа Вю_1989-HDTVRip-AVC.mkv
Формат : Matroska
Версия формата : Version 2
Размер файла : 2, 80 Гбайт
Продолжительность : 1 ч. 44 м.
Общий поток : 3829 Кбит/сек
Дата кодирования : UTC 2015-05-31 16: 15: 06
Программа кодирования : mkvmerge v5.8.0 (;No Sleep/Pillow;) built on Sep 2 2012 15: 37: 04
Библиотека кодирования : libebml v1.2.3 + libmatroska v1.3.0
Видео
Идентификатор : 1
Формат : AVC
Формат/Информация : Advanced Video Codec
Профиль формата : High@L4.1
Параметр CABAC формата : Да
Параметр ReFrames формата : 10 кадров
Идентификатор кодека : V_MPEG4/ISO/AVC
Продолжительность : 1 ч. 44 м.
Битрейт : 3443 Кбит/сек
Ширина : 1152 пикселя
Высота : 694 пикселя
Соотношение сторон : 1, 660
Режим частоты кадров : Постоянный
Частота кадров : 25, 000 кадров/сек
Цветовое пространство : YUV
Субдискретизация насыщенности : 4: 2: 0
Битовая глубина : 8 бит
Тип развёртки : Прогрессивная
Бит/(Пиксели*Кадры) : 0.172
Размер потока : 2, 47 Гбайт (88%)
Библиотека кодирования : x264 core 142 r2431 ac76440
Настройки программы : cabac=1/ref=10/deblock=1: -2: -2/analyse=0x3: 0x113/me=umh/subme=10/psy=1/psy_rd=0.55: 0.20/mixed_ref=1/me_range=32/chroma_me=1/trellis=2/8x8dct=1/cqm=0/deadzone=21, 11/fast_pskip=0/chroma_qp_offset=-3/threads=12/lookahead_threads=2/sliced_threads=0/nr=0/decimate=0/interlaced=0/bluray_compat=0/constrained_intra=0/bframes=7/b_pyramid=2/b_adapt=2/b_bias=0/direct=1/weightb=1/open_gop=0/weightp=2/keyint=250/keyint_min=25/scenecut=40/intra_refresh=0/rc_lookahead=60/rc=2pass/mbtree=1/bitrate=3443/ratetol=1.0/qcomp=0.70/qpmin=0/qpmax=39/qpstep=4/cplxblur=20.0/qblur=0.5/ip_ratio=1.40/aq=1: 0.50
Язык : English
Default : Да
Forced : Нет
Основные цвета : BT.709
Характеристики трансфера : BT.709
Коэффициенты матрицы : BT.709
Аудио #1
Идентификатор : 2
Формат : AC-3
Формат/Информация : Audio Coding 3
Расширение режима : CM (complete main)
Параметр Endianness формата : Big
Идентификатор кодека : A_AC3
Продолжительность : 1 ч. 44 м.
Вид битрейта : Постоянный
Битрейт : 192 Кбит/сек
Каналы : 2 канала
Расположение каналов : Front: L R
Частота : 48, 0 КГц
Битовая глубина : 16 бит
Метод сжатия : С потерями
Размер потока : 144 Мбайт (5%)
Заголовок : VO * на места с англоязычной речью
Язык : Russian
Default : Да
Forced : Нет
Аудио #2
Идентификатор : 3
Формат : AC-3
Формат/Информация : Audio Coding 3
Расширение режима : CM (complete main)
Параметр Endianness формата : Big
Идентификатор кодека : A_AC3
Продолжительность : 1 ч. 44 м.
Вид битрейта : Постоянный
Битрейт : 192 Кбит/сек
Каналы : 2 канала
Расположение каналов : Front: L R
Частота : 48, 0 КГц
Битовая глубина : 16 бит
Метод сжатия : С потерями
Размер потока : 144 Мбайт (5%)
Язык : English
Default : Нет
Forced : Нет
Текст #1
Идентификатор : 4
Формат : UTF-8
Идентификатор кодека : S_TEXT/UTF8
Идентификатор кодека/Информация : UTF-8 Plain Text
Заголовок : Full
Язык : Russian
Default : Нет
Forced : Нет
Текст #2
Идентификатор : 5
Формат : UTF-8
Идентификатор кодека : S_TEXT/UTF8
Идентификатор кодека/Информация : UTF-8 Plain Text
Заголовок : Forse
Язык : Russian
Default : Нет
Forced : Нет
Текст #3
Идентификатор : 6
Формат : UTF-8
Идентификатор кодека : S_TEXT/UTF8
Идентификатор кодека/Информация : UTF-8 Plain Text
Язык : English
Default : Нет
Forced : Нет

Скриншоты

На kinozal не перезаливать!


Онлайн видео Дежа Вю


Размер скачиваемого торрента: 2.80 GB (3009343829 Bytes)

Дежа Вю/Deja Vu (1989) HDTVRip-AVC
загрузка...
Рейтинг →
 (голосов: 1, оценка 4/5, голосовать можно 1 раз )

Другие торренты по теме:

  • Дежа Вю / Deja Vu (2006) BDRip-AVC от olegek70 | D, P, P2, A торрент скачать бесплатно
  • Дежа вю / Deja Vu (2006) BDRip 1080p торрент скачать бесплатно
  • Дежа вю / Deja Vu (2006) BDRip 720p от leonardo 59 Scarabey | Лицензия скачать через торрент бесплатно
  • Дежа вю / Deja Vu (2006) BDRip-AVC от HELLYWOOD торрент скачать бесплатно
  • Врата Штейна: Дежа вю / SteinsGate: Fuka Ryouiki no Dj vu (2013) BDRip торрент скачать бесплатно
  • Дежа Вю / Deja Vu (2006) BDRip от HQCLUB торрент скачать бесплатно
  • Врата Штейна: Дежа вю / Gekijouban SteinsGate: Fuka Ryouiki no Deja vu (2013) BDRip | L1 торрент скачать бесплатно
  • Врата Штейна: Дежа вю / Gekijouban SteinsGate: Fuka Ryouiki no Deja vu (2013) BDRip | L1 скачать через торрент бесплатно


    • Комментарии (0):

      Информация

      Информация

        Посетители, находящиеся в группе Гости, не могут оставлять комментарии в данной новости.

        ↓ Меню



        ↓ Опрос

        А Вы добавили сайт в закладки?
        Да
        Не


        Top 10 за неделю (Фильмы)