.
Авторизация | Регистрация
Хочешь лучшие торренты? Добавь свой email!
Добавить
» » Ловушка для родителей / The Parent Trap (1998) WEB-DL 720p | P, A торрент скачать бесплатно




    Ловушка для родителей / The Parent Trap (1998) WEB-DL 720p | P, A торрент скачать бесплатно

    Опубликовал: Админ | Дата: 1-06-2015, 00:02 | Просмотров: 212


    Детально о кино
    Русское название: Ловушка для родителей
    Русское название в мировом прокате: The Parent Trap
    Создали в: 1998
    Категория жанра: драма, мелодрама, комедия, приключения, семейный
    Главный режиссер: Нэнси Майерс/Nancy Meyers/

    Актеры
    Линдси Лохан/Lindsay Lohan/ , Деннис Куэйд/Dennis Quaid/ , Наташа Ричардсон/Natasha Richardson/ , Элэйн Хендрикс/Elaine Hendrix/ , Лиза Энн Уолтер/Lisa Ann Walter/ , Саймон КунцSimon Kunz/ , Полли Холлидей/Polly Holliday/ , Мэгги Уилер/Maggie Wheeler/ , Ронни Стивенс/Ronnie Stevens/ , Джоэнна Барнс/Joanna Barnes/

    Сюжет фильма

    Юная Холли Паркер живет в солнечной Калифорнии с самым замечательным отцом на свете, а ее ровесница Энни Джеймс — в туманном Лондоне с прекрасной любящей матерью. Первая мечтает о маме, без которой ей очень тяжело, а второй так хочется, чтобы у нее был папа.
    Когда девочки случайно встречаются в летнем лагере, им есть, чем поделиться друг с другом. Но помимо общих горестей между Холли и Энни существует еще одно сходство: они… близнецы! Их родители развелись много лет назад, и девочки решают исправить эту трагическую ошибку.
    Сестрички начинают действовать: американка возвращается в Лондон, а англичанка в Америку. И ничего не подозревающие родители легко попадают в ловушку…

    Снималось в: США
    Студии: Walt Disney Pictures/The Meyers/Shyer Company/Cinema Vehicle Services
    Время просмотра: 02: 08: 14
    Перевод текста:
    Профессиональный (многоголосый, закадровый) -СТС
    Профессиональный (многоголосый, закадровый) -Видеосервис
    Профессиональный (многоголосый, закадровый) -ОРТ
    Авторский (одноголосый, закадровый) -Сергей Визгунов
    Авторский (одноголосый, закадровый) -Александр Кашкин
    Файл
    Кодек для видео: H.264
    Качество фильма: WEB-DL 720p
    Информация о видео: 1280x692 at 23.976 fps, MPEG-4 AVC, ~3987 kbps avg
    Информация о звуке#1: Russian: 48 kHz, AC3, 2/0 (L, R) ch, ~192.00 kbps avg |Многоголосый закадровый, СТС |
    Информация о звуке#2: Russian: 48 kHz, AC3, 2/0 (L, R) ch, ~192.00 kbps avg |Многоголосый закадровый, Видеосервис |
    Информация о звуке#3: Russian: 48 kHz, AC3, 2/0 (L, R) ch, ~192.00 kbps avg |Многоголосый закадровый, ОРТ |
    Информация о звуке#4: Russian: 48 kHz, AC3, 3/2 (L, C, R, l, r) + LFE ch, ~448.00 kbps avg |Одноголосый закадровый, Сергей Визгунов |
    Информация о звуке#5: Russian: 48 kHz, AC3, 2/0 (L, R) ch, ~192.00 kbps avg |Одноголосый закадровый, Александр Кашкин |
    Информация о звуке#6: English: 48 kHz, AC3, 3/2 (L, C, R, l, r) + LFE ch, ~448.00 kbps avg |Оригинал|
    Субтитры: Russian (Full), English (Full)
    Скриншоты

    MediaInfo
    General
    Complete name : The.Parent.Trap.1998.720p.WEB-DL.5xRus.Eng.mkv
    Format : Matroska
    Format version : Version 4/Version 2
    File size : 5.16 GiB
    Duration : 2h 8mn
    Overall bit rate : 5 766 Kbps
    Movie name : The Parent Trap (1998)
    Encoded date : UTC 2015-05-31 18: 04: 08
    Writing application : mkvmerge v7.9.0 (;Birds;) 64bit
    Writing library : libebml v1.3.1 + libmatroska v1.4.2
    Video
    ID : 1
    Format : AVC
    Format/Info : Advanced Video Codec
    Format profile : High@L3.1
    Format settings, CABAC : No
    Format settings, ReFrames : 2 frames
    Format settings, GOP : N=1
    Codec ID : V_MPEG4/ISO/AVC
    Duration : 2h 8mn
    Bit rate : 3 987 Kbps
    Width : 1 280 pixels
    Height : 692 pixels
    Display aspect ratio : 1.85: 1
    Frame rate mode : Constant
    Frame rate : 23.976 fps
    Color space : YUV
    Chroma subsampling : 4: 2: 0
    Bit depth : 8 bits
    Scan type : Progressive
    Bits/(Pixel*Frame) : 0.188
    Stream size : 3.57 GiB (69%)
    Title : The Parent Trap (1998)
    Language : English
    Default : Yes
    Forced : No
    Color primaries : BT.709
    Transfer characteristics : BT.709
    Matrix coefficients : BT.709
    Color range : Limited
    Audio #1
    ID : 2
    Format : AC-3
    Format/Info : Audio Coding 3
    Mode extension : CM (complete main)
    Format settings, Endianness : Big
    Codec ID : A_AC3
    Duration : 2h 8mn
    Bit rate mode : Constant
    Bit rate : 192 Kbps
    Channel(s) : 2 channels
    Channel positions : Front: L R
    Sampling rate : 48.0 KHz
    Bit depth : 16 bits
    Compression mode : Lossy
    Stream size : 176 MiB (3%)
    Title : AC3 2.0 ch @ 192 kbps - MVO (CTC)
    Language : Russian
    Default : Yes
    Forced : No
    Audio #2
    ID : 3
    Format : AC-3
    Format/Info : Audio Coding 3
    Mode extension : CM (complete main)
    Format settings, Endianness : Big
    Codec ID : A_AC3
    Duration : 2h 8mn
    Bit rate mode : Constant
    Bit rate : 192 Kbps
    Channel(s) : 2 channels
    Channel positions : Front: L R
    Sampling rate : 48.0 KHz
    Bit depth : 16 bits
    Compression mode : Lossy
    Stream size : 176 MiB (3%)
    Title : AC3 2.0 ch @ 192 kbps - MVO (Видеосервис)
    Language : Russian
    Default : No
    Forced : No
    Audio #3
    ID : 4
    Format : AC-3
    Format/Info : Audio Coding 3
    Mode extension : CM (complete main)
    Format settings, Endianness : Big
    Codec ID : A_AC3
    Duration : 2h 8mn
    Bit rate mode : Constant
    Bit rate : 192 Kbps
    Channel(s) : 2 channels
    Channel positions : Front: L R
    Sampling rate : 48.0 KHz
    Bit depth : 16 bits
    Compression mode : Lossy
    Stream size : 176 MiB (3%)
    Title : AC3 2.0 ch @ 192 kbps - MVO (ОРТ)
    Language : Russian
    Default : No
    Forced : No
    Audio #4
    ID : 5
    Format : AC-3
    Format/Info : Audio Coding 3
    Mode extension : CM (complete main)
    Format settings, Endianness : Big
    Codec ID : A_AC3
    Duration : 2h 8mn
    Bit rate mode : Constant
    Bit rate : 448 Kbps
    Channel(s) : 6 channels
    Channel positions : Front: L C R, Side: L R, LFE
    Sampling rate : 48.0 KHz
    Bit depth : 16 bits
    Compression mode : Lossy
    Stream size : 411 MiB (8%)
    Title : AC3 5.1 ch @ 448 kbps - AVO (С. Визгунов)
    Language : Russian
    Default : No
    Forced : No
    Audio #5
    ID : 6
    Format : AC-3
    Format/Info : Audio Coding 3
    Mode extension : CM (complete main)
    Format settings, Endianness : Big
    Codec ID : A_AC3
    Duration : 2h 8mn
    Bit rate mode : Constant
    Bit rate : 192 Kbps
    Channel(s) : 2 channels
    Channel positions : Front: L R
    Sampling rate : 48.0 KHz
    Bit depth : 16 bits
    Compression mode : Lossy
    Stream size : 176 MiB (3%)
    Title : AC3 2.0 ch @ 192 kbps - AVO (А. Кашкин)
    Language : Russian
    Default : No
    Forced : No
    Audio #6
    ID : 7
    Format : AC-3
    Format/Info : Audio Coding 3
    Mode extension : CM (complete main)
    Format settings, Endianness : Big
    Codec ID : A_AC3
    Duration : 2h 8mn
    Bit rate mode : Constant
    Bit rate : 448 Kbps
    Channel(s) : 6 channels
    Channel positions : Front: L C R, Side: L R, LFE
    Sampling rate : 48.0 KHz
    Bit depth : 16 bits
    Compression mode : Lossy
    Stream size : 411 MiB (8%)
    Title : AC3 5.1 ch @ 448 kbps
    Language : English
    Default : No
    Forced : No
    Text #1
    ID : 8
    Format : UTF-8
    Codec ID : S_TEXT/UTF8
    Codec ID/Info : UTF-8 Plain Text
    Title : Full
    Language : Russian
    Default : No
    Forced : No
    Text #2
    ID : 9
    Format : UTF-8
    Codec ID : S_TEXT/UTF8
    Codec ID/Info : UTF-8 Plain Text
    Title : Full
    Language : English
    Default : No
    Forced : No
    Menu
    00: 00: 00.000 : en: 1
    00: 03: 29.000 : en: 2
    00: 12: 07.000 : en: 3
    00: 21: 25.000 : en: 4
    00: 28: 03.000 : en: 5
    00: 37: 24.000 : en: 6
    00: 45: 08.000 : en: 7
    01: 07: 38.000 : en: 8
    01: 18: 34.000 : en: 9
    01: 23: 09.000 : en: 10
    01: 35: 42.000 : en: 11
    01: 44: 49.000 : en: 12
    01: 54: 58.000 : en: 13
    02: 02: 24.000 : en: 14
    Дополнительная информация
    Цитата Кто-тописал:
    Сохранены оригинальные главы.


    Онлайн видео Ловушка для родителей


    Размер скачиваемого торрента: 5.16 GB (5545644380 Bytes)

    Ловушка для родителей/The Parent Trap (1998) WEB-DL 720p | P, A
    загрузка...
    Рейтинг →
     (голосов: 1, оценка 4/5, голосовать можно 1 раз )

    Другие торренты по теме:

  • Алексей Пехов, Елена Бычкова, Наталья Турчанинова - Заклинатели 2. Ловушка для духа (2017) MP3
  • Ловушка для призраков / Spirit Trap (2005) DVDRip
  • Ловушка для Золушки / Trap for Cinderella (2013) DVDRip | L2
  • Ловушка для Золушки / Trap for Cinderella (2013) BDRip 720p | L2
  • Ловушка для Золушки / Trap for Cinderella (2013) HDRip | L2
  • Ловушка для Золушки / Trap for Cinderella (2013) BDRip 1080p от CINEMANIA | L2
  • Ловушка для родителей 2 / The Parent Trap II (1986) DVDRip | P
  • Ловушка для невесты / The Decoy Bride (2011) BDRip от HQCLUB | Лицензия скачать через торрент бесплатно


    • Комментарии (0):

      Информация

      Информация

        Посетители, находящиеся в группе Гости, не могут оставлять комментарии в данной новости.

        ↓ Меню



        ↓ Опрос

        А Вы добавили сайт в закладки?
        Да
        Не


        Top 10 за месяц (Фильмы)