.
Авторизация | Регистрация
Хочешь лучшие торренты? Добавь свой email!
Добавить
» » Два Фёдора (1958) SATRip-AVC от ExKinoRay торрент скачать бесплатно




    Два Фёдора (1958) SATRip-AVC от ExKinoRay торрент скачать бесплатно

    Опубликовал: Админ | Дата: 1-06-2015, 03:02 | Просмотров: 126


    Детально о кино
    Русское название: Два Фёдора
    Создали в: 1958
    Категория жанра: Драма
    Главный режиссер: Марлен Хуциев

    Актеры
    Василий Шукшин, Николай Чурсин, Тамара Сёмина, Юрий Елин, Марина Шаманская, Игорь Политаев, Александр Александровский, Дмитрий Иванов

    Сюжет фильма

    Закончилась война. Возвращаются домой солдаты. На одной из станций Федор (Шукшин) увидел, как торговка поймала мальчишку, укравшего лепешку. Он вступился за него и отдал тетке деньги. Мальчишку же взял с собой — тот попросил подвезти пару станций, которые растянулись на долгий путь. По тому, как смотрит Федор на мальчика, сразу ясно, что дома его никто не ждет. Познакомились, и оказалось, что мальчика тоже зовут Федором. И взял большой Федор маленького Федора с собой, поддавшись неожиданному порыву — угадал, что никакая тетка не ждала его в незнакомом городе. Приехали домой, а вместо дома — одни стены, все пришлось восстанавливать своими руками. Прошло какое-то время, и состоялось знакомство большого Федора с красивой девушкой (Семина), назвавшей его усатым тараканом. Ее же мальчишки дразнили Аистихой и воровали у нее огурцы. Пришлось Федору и бороться со старыми, вредными привычками маленького Федора одалживать необходимые для жизни вещи, например, куриц. Но это все бы ничего, но, как, наверное, уже догадались зрители, встала между мужской дружбой красавица Семина. Мальчик так ревновал к человеку, заменившему ему семью, что даже ночью отрезал Аистихе волосы — это, когда она уже жила с ними вместе... Замечательная картина, прекрасно снятая и сыгранная, трогает до глубины души. Так приятно посмотреть этот черно-белый фильм о том, когда люди стремились быть добрее. Первые роли в кино Шукшина и Семиной. Текст песни А. Фатьянова. (М. Иванов)
    Снималось в: СССР
    Время просмотра: 01: 24: 02
    Перевод текста: не требуется
    Файл
    Кодек для видео: MKV
    Качество фильма: SATRip-AVC
    Информация о видео: MPEG-4 AVC, 2525 Кбит/с, 720x566@768x566
    Информация о звуке: AC3, 2 ch, 192 Кбит/с
    Медиа-Инфо
    Общее
    Уникальный идентификатор : 194887502478970218743724222839093362337 (0x929DF7B9F2FC48F7926CA3FCE7DE7EA1)
    Полное имя : R: МОИ РИПЫДва Фёдора_1958-SATRip-AVC.mkv
    Формат : Matroska
    Версия формата : Version 2
    Размер файла : 1, 60 Гбайт
    Продолжительность : 1 ч. 24 м.
    Общий поток : 2719 Кбит/сек
    Дата кодирования : UTC 2015-05-17 21: 29: 24
    Программа кодирования : mkvmerge v5.8.0 (;No Sleep/Pillow;) built on Sep 2 2012 15: 37: 04
    Библиотека кодирования : libebml v1.2.3 + libmatroska v1.3.0
    Видео
    Идентификатор : 1
    Формат : AVC
    Формат/Информация : Advanced Video Codec
    Профиль формата : High@L4.1
    Параметр CABAC формата : Да
    Параметр ReFrames формата : 15 кадров
    Идентификатор кодека : V_MPEG4/ISO/AVC
    Продолжительность : 1 ч. 24 м.
    Битрейт : 2525 Кбит/сек
    Ширина : 720 пикселей
    Высота : 566 пикселей
    Соотношение сторон : 4: 3
    Режим частоты кадров : Постоянный
    Частота кадров : 25, 000 кадров/сек
    Цветовое пространство : YUV
    Субдискретизация насыщенности : 4: 2: 0
    Битовая глубина : 8 бит
    Тип развёртки : Прогрессивная
    Бит/(Пиксели*Кадры) : 0.248
    Размер потока : 1, 45 Гбайт (91%)
    Библиотека кодирования : x264 core 146 r2538 121396c
    Настройки программы : cabac=1/ref=15/deblock=1: -2: -2/analyse=0x3: 0x133/me=umh/subme=10/psy=1/psy_rd=1.05: 0.20/mixed_ref=1/me_range=32/chroma_me=1/trellis=2/8x8dct=1/cqm=0/deadzone=21, 11/fast_pskip=0/chroma_qp_offset=-3/threads=12/lookahead_threads=2/sliced_threads=0/nr=0/decimate=0/interlaced=0/bluray_compat=0/constrained_intra=0/bframes=7/b_pyramid=2/b_adapt=2/b_bias=0/direct=3/weightb=1/open_gop=0/weightp=2/keyint=250/keyint_min=25/scenecut=40/intra_refresh=0/rc=2pass/mbtree=0/bitrate=2525/ratetol=1.0/qcomp=0.65/qpmin=0/qpmax=39/qpstep=4/cplxblur=20.0/qblur=0.5/ip_ratio=1.40/pb_ratio=1.30/aq=1: 1.00
    Язык : English
    Default : Да
    Forced : Нет
    Основные цвета : BT.601 PAL
    Характеристики трансфера : BT.470 System B, BT.470 System G
    Коэффициенты матрицы : BT.601
    Аудио
    Идентификатор : 2
    Формат : AC-3
    Формат/Информация : Audio Coding 3
    Расширение режима : CM (complete main)
    Параметр Endianness формата : Big
    Идентификатор кодека : A_AC3
    Продолжительность : 1 ч. 24 м.
    Вид битрейта : Постоянный
    Битрейт : 192 Кбит/сек
    Каналы : 2 канала
    Расположение каналов : Front: L R
    Частота : 48, 0 КГц
    Битовая глубина : 16 бит
    Метод сжатия : С потерями
    Размер потока : 115 Мбайт (7%)
    Язык : Russian
    Default : Да
    Forced : Нет

    Скриншоты


    На kinozal не перезаливать!

    Релиз подготовил:
    Релиз подготовил:

    Онлайн видео Два Фёдора (1958) SATRip


    Размер скачиваемого торрента: 1.60 GB (1713623601 Bytes)

    Два Фёдора (1958) SATRip-AVC от ExKinoRay
    загрузка...
    Рейтинг →
     (голосов: 1, оценка 3/5, голосовать можно 1 раз )

    Другие торренты по теме:

  • Два билета на дневной сеанс / 1966 / РУ / DVDRip
  • Два парня / Два друга / Two Guys / Tu gaijeu (2004) DVDRip | L1
  • Два отца и два сына (2013) WEBRip-AVC
  • Два отца два сына (2013) SATRip
  • Два отца и два сына (2013) SATRip
  • Два отца и два сына (2013) WEB-DLRip от HitWay скачать через торрент бесплатно
  • Два отца и два сына (2013) DVDRip-AVC от New-Team | лицензия скачать через торрент бесплатно
  • Два отца и два сына (2013) 2xDVD9 R5 от New-Team | лицензия скачать через торрент бесплатно


    • Комментарии (0):

      Информация

      Информация

        Посетители, находящиеся в группе Гости, не могут оставлять комментарии в данной новости.

        ↓ Меню



        ↓ Опрос

        А Вы добавили сайт в закладки?
        Да
        Не


        Top 10 за месяц (Фильмы)