.
Авторизация | Регистрация
» » Неприкаянные / The Misfits (1961) DVD-9 от NovaLan скачать торрент бесплатно




    Неприкаянные / The Misfits (1961) DVD-9 от NovaLan скачать торрент бесплатно

    Опубликовал: Админ | Дата: 1-06-2015, 18:01 | Просмотров: 137


    Детально о кино
    Русское название: Неприкаянные
    Русское название в мировом прокате: The Misfits
    Создали в: 1961
    Категория жанра: Драма, мелодрама, вестерн
    Главный режиссер: Джон Хьюстон

    Актеры
    Кларк Гейбл, Мэрилин Монро, Монтгомери Клифт, Тельма Риттер, Эли Уоллах, Джеймс Бартон, Кевин МакКарти, Эстель Уинвуд, Пегги Бартон, Рекс Белл, Фрэнк Фанелли ст., Филип Митчелл (II), Джон Хьюстон, Ральф Робертс

    Сюжет фильма
    Соблазнительная и печальная, Розлин специально приехала в городок Рино, чтобы развестись с мужем. В местном баре Розлин и ее приятельница Изабель — неунывающая дамочка преклонных средних лет, специалистка по разводам — знакомятся с двумя ковбоями. Гэй и Гвидс — мужчины с большим жизненным опытом тоже одинокие и неприкаянные. Они странствуют по Неваде в поисках случайного заработка, и горячий ветер пустыни, суровая мужская дружба, тяга к виски, мальчишеская влюбленность в родео и недостроенный домик вдалеке от города — это все, что у них есть. Богатством, которым ковбои обладают, они готовы поделиться с Розлин, которая ищет верности и настоящего человеческого тепла. Странная компания и присоединившийся к ним неудачливый ковбой Пирс отправляются в горы на ранчо, чтобы как встарые добрые времена объезжать диких невадских мустангов…

    Снималось в: США
    Киностудия: Seven Arts Productions
    Время просмотра: 02: 04: 48
    Перевод текста: Профессиональный многоголосый, профессиональный двухголосый
    Файл
    Кодек для видео: MPEG-2
    Качество фильма: DVD9
    Информация о видео: MPEG2, NTSC 16: 9 (720x480@853x480) VBR, 23, 976 кадра/сек
    Информация о звуке: Русский/Английский 2.0 (192 Kbps)
    Аудио

    1. Профессиональный многоголосый (DVD Магия)
    2. Профессиональный многоголосый (Светла)
    3. Профессиональный двухгоолосый (НТВ+)
    4. Английский
    Меню
    DVDInfo
    Title: Локальный диск
    Size: 6.50 Gb ( 6 816 848 KBytes ) - DVD-9
    Enabled regions: 1, 2, 3, 4, 5, 6, 7, 8
    VTS_01 :
    Play Length: 02: 04: 48
    Video: NTSC 16: 9 (720x480) VBR, Auto PanScan
    Audio:
    Russian (Dolby AC3, 2 ch)
    Russian (Dolby AC3, 2 ch)
    Russian (Dolby AC3, 2 ch)
    English (Dolby AC3, 2 ch)
    Menu Video:
    NTSC 4: 3 (704x480) VBR
    Menu English Language Unit :
    Root Menu
    MediaInfo
    Общее
    Полное имя : D: 1АААНЕПРИКАЯННЫЕVIDEO_TSVTS_01_1.VOB
    Формат : MPEG-PS
    Размер файла : 1000 Мбайт
    Продолжительность : 20 м.
    Режим общего битрейта : Переменный
    Общий поток : 6958 Кбит/сек
    Видео
    Идентификатор : 224 (0xE0)
    Формат : MPEG Video
    Версия формата : Version 2
    Профиль формата : Main@Main
    Параметр BVOP формата : Да
    Параметр матрицы формата : По умолчанию
    Параметр GOP формата : M=3, N=12
    Продолжительность : 20 м.
    Вид битрейта : Переменный
    Битрейт : 6052 Кбит/сек
    Максимальный битрейт : 8360 Кбит/сек
    Ширина : 720 пикселей
    Высота : 480 пикселей
    Соотношение сторон : 16: 9
    Частота кадров : 23, 976 кадра/сек
    Стандарт вещания : NTSC
    Цветовое пространство : YUV
    Субдискретизация насыщенности : 4: 2: 0
    Битовая глубина : 8 бит
    Тип развёртки : Прогрессивная
    Порядок развёртки : 2: 3 Pulldown
    Метод сжатия : С потерями
    Бит/(Пиксели*Кадры) : 0.730
    TimeCode_FirstFrame : 00: 00: 00;00
    TimeCode_Source : Group of pictures t_head
    Размер потока : 870 Мбайт (87%)
    Аудио #1
    Идентификатор : 189 (0xBD)-128 (0x80)
    Формат : AC-3
    Формат/Информация : Audio Coding 3
    Расширение режима : CM (complete main)
    Параметр Endianness формата : Big
    Режим смешивания : DVD-Video
    Продолжительность : 20 м.
    Вид битрейта : Постоянный
    Битрейт : 192 Кбит/сек
    Каналы : 2 канала
    Расположение каналов : Front: L R
    Частота : 48, 0 КГц
    Битовая глубина : 16 бит
    Метод сжатия : С потерями
    Размер потока : 27, 6 Мбайт (3%)
    Аудио #2
    Идентификатор : 189 (0xBD)-129 (0x81)
    Формат : AC-3
    Формат/Информация : Audio Coding 3
    Расширение режима : CM (complete main)
    Параметр Endianness формата : Big
    Режим смешивания : DVD-Video
    Продолжительность : 20 м.
    Вид битрейта : Постоянный
    Битрейт : 192 Кбит/сек
    Каналы : 2 канала
    Расположение каналов : Front: L R
    Частота : 48, 0 КГц
    Битовая глубина : 16 бит
    Метод сжатия : С потерями
    Размер потока : 27, 6 Мбайт (3%)
    Аудио #3
    Идентификатор : 189 (0xBD)-130 (0x82)
    Формат : AC-3
    Формат/Информация : Audio Coding 3
    Расширение режима : CM (complete main)
    Параметр Endianness формата : Big
    Режим смешивания : DVD-Video
    Продолжительность : 20 м.
    Вид битрейта : Постоянный
    Битрейт : 192 Кбит/сек
    Каналы : 2 канала
    Расположение каналов : Front: L R
    Частота : 48, 0 КГц
    Битовая глубина : 16 бит
    Метод сжатия : С потерями
    Размер потока : 27, 6 Мбайт (3%)
    Аудио #4
    Идентификатор : 189 (0xBD)-131 (0x83)
    Формат : AC-3
    Формат/Информация : Audio Coding 3
    Расширение режима : CM (complete main)
    Параметр Endianness формата : Big
    Режим смешивания : DVD-Video
    Продолжительность : 20 м.
    Вид битрейта : Постоянный
    Битрейт : 192 Кбит/сек
    Каналы : 2 канала
    Расположение каналов : Front: L R
    Частота : 48, 0 КГц
    Битовая глубина : 16 бит
    Метод сжатия : С потерями
    Размер потока : 27, 6 Мбайт (3%)
    Меню


    Скриншоты

    Релиз группа:
    Автор:
    Залил: YArl

    Онлайн видео Неприкаянные


    Размер скачиваемого торрента: 6.50 GB (6980452352 Bytes)

    Неприкаянные/The Misfits (1961) DVD-9 от NovaLan
    загрузка...
    Рейтинг →
     (голосов: 1, оценка 3/5, голосовать можно 1 раз )

    Другие торренты по теме:

  • Неприкаянный клинок / Samayou Yaiba / The Hovering Blade (2009) DVDRip | L1 торрент скачать бесплатно
  • Неприкаянная: Ненасытность / Неприкаянный 3 / Levottomat 3 (2004) DVDRip от ExKinoRay | A торрент скачать бесплатно
  • Бей и лети! / Неприкаянные / Lafangey Parindey (2010) HDRip от Rulya74 | L1 скачать через торрент бесплатно
  • Неприкаянный / Levottomat (2000) DVDRip-AVC | P2 скачать через торрент бесплатно
  • Неприкаянный / Levottomat (2000) DVDRip | P2 торрент скачать бесплатно
  • Плавучий храм. Неприкаянное юродство простых историй скачать через торрент бесплатно
  • Неприкаянные сердца / Desert Hearts (1985) DVDRip скачать торрент бесплатно
  • Раскрывая тайны. Мистика (Неприкаянные души среди нас) (2015) SATRip скачать торрент бесплатно


    • Комментарии (0):

      Информация

      Информация

        Посетители, находящиеся в группе Гости, не могут оставлять комментарии в данной новости.

        ↓ Меню



        ↓ Опрос

        А Вы добавили сайт в закладки?
        Да
        Не


        Top 10 за неделю (Фильмы)