.
Авторизация | Регистрация
Хочешь лучшие торренты? Добавь свой email!
Добавить
» » Эффект Лазаря / The Lazarus Effect (2015) BDRip 1080p | Чистый звук торрент скачать бесплатно




    Эффект Лазаря / The Lazarus Effect (2015) BDRip 1080p | Чистый звук торрент скачать бесплатно

    Опубликовал: Админ | Дата: 2-06-2015, 00:05 | Просмотров: 130



    Детально о кино
    Русское название: Эффект Лазаря
    Русское название в мировом прокате: The Lazarus Effect
    Создали в: 2015
    Категория жанра: Ужасы, триллер
    Главный режиссер: Дэвид Гелб

    Актеры
    Марк Дюпласс, Оливия Уайлд, Дональд Гловер, Эван Питерс, Сара Болгер, Рэй Уайз, Скотт Шелдон, Эмили Келавос, Джеймс Эрл, Эми Акино, Шон Т. Кришнан, Атор Тамрас, Като, Лииса Коэн, Дженнифер Флойд, Бруно Джойелло, Скотт Л. Трегер


    Сюжет фильма
    Группа студентов разрабатывает так называемую сыворотку Лазаря, которая может воскрешать из мёртвых. Первый эксперимент они провели на мёртвой собаке и всеобщему удивлению сыворотка сработала. Однако что то пошло не по плану и собака умерла. Ребята решили провести над неё ещё один эксперимент, во время которого аспирантка Зои получила разряд током и умерла. В отчаянии ей вводят сыворотку Лазаря. Девушка ожила и с ней начали происходить непонятные вещи, девушка уже не такая какой была до смерти.



    Снималось в: США/Blumhouse Productions, Chapter One Films, Lionsgate
    Время просмотра: 01: 23: 12
    Перевод текста: Профессиональный (полное дублирование)- Чистый звук

    Файл
    Качество фильма: BDRip 1080p
    Тип видео: MKV
    Информация о видео: MPEG4/AVC, 9730 Кбит/сек, 1920х800 (2.40: 1), 23.976 кадра/сек
    Информация о звуке 1: АС3, 2 канала, 384 Кбит/сек | Русский
    Информация о звуке 2: DTS, 6 каналов, 1509 Кбит/сек | Английский
    Субтитры: Английские (Full, SDH)
    Навигация по главам: Есть

    MediaInfo:
    Общее
    Уникальный идентификатор : 247139496217868151052599416661695891356 (0xB9ED55EB3C96D7EEA657908C0585879C)
    Полное имя : The Lazarus Effect. (2015) BDRip 1080p.mkv
    Формат : Matroska
    Версия формата : Version 2
    Размер файла : 6, 74 Гбайт
    Продолжительность : 1 ч. 23 м.
    Общий поток : 11, 6 Мбит/сек
    Название фильма : The Lazarus Effect. 2015
    Дата кодирования : UTC 2015-06-01 12: 13: 30
    Программа кодирования : mkvmerge v5.8.0 (;No Sleep/Pillow;) built on Sep 2 2012 15: 37: 04
    Библиотека кодирования : libebml v1.2.3 + libmatroska v1.3.0

    Видео
    Идентификатор : 1
    Формат : AVC
    Формат/Информация : Advanced Video Codec
    Профиль формата : High@L4.1
    Параметр CABAC формата : Да
    Параметр ReFrames формата : 5 кадров
    Идентификатор кодека : V_MPEG4/ISO/AVC
    Продолжительность : 1 ч. 23 м.
    Битрейт : 9730 Кбит/сек
    Ширина : 1920 пикселей
    Высота : 800 пикселей
    Соотношение сторон : 2, 40: 1
    Режим частоты кадров : Постоянный
    Частота кадров : 23, 976 кадра/сек
    Цветовое пространство : YUV
    Субдискретизация насыщенности : 4: 2: 0
    Битовая глубина : 8 бит
    Тип развёртки : Прогрессивная
    Бит/(Пиксели*Кадры) : 0.264
    Размер потока : 5, 50 Гбайт (82%)
    Заголовок : MTeam
    Библиотека кодирования : x264 core 138 r2358 9e941d1
    Настройки программы : cabac=1/ref=5/deblock=1: -3: -3/analyse=0x3: 0x113/me=umh/subme=11/psy=1/psy_rd=1.05: 0.10/mixed_ref=1/me_range=48/chroma_me=1/trellis=2/8x8dct=1/cqm=0/deadzone=21, 11/fast_pskip=0/chroma_qp_offset=-2/threads=18/lookahead_threads=1/sliced_threads=0/nr=0/decimate=1/interlaced=0/bluray_compat=0/constrained_intra=0/bframes=6/b_pyramid=2/b_adapt=2/b_bias=0/direct=3/weightb=1/open_gop=0/weightp=2/keyint=250/keyint_min=23/scenecut=40/intra_refresh=0/rc_lookahead=40/rc=2pass/mbtree=0/bitrate=9730/ratetol=2.0/qcomp=0.70/qpmin=0/qpmax=69/qpstep=4/cplxblur=20.0/qblur=0.5/vbv_maxrate=40000/vbv_bufsize=30000/nal_hrd=none/ip_ratio=1.40/pb_ratio=1.30/aq=2: 1.00
    Язык : English
    Default : Да
    Forced : Нет

    Аудио #1
    Идентификатор : 2
    Формат : AC-3
    Формат/Информация : Audio Coding 3
    Расширение режима : CM (complete main)
    Параметр Endianness формата : Big
    Идентификатор кодека : A_AC3
    Продолжительность : 1 ч. 23 м.
    Вид битрейта : Постоянный
    Битрейт : 384 Кбит/сек
    Каналы : 2 канала
    Расположение каналов : Front: L R
    Частота : 48, 0 КГц
    Битовая глубина : 16 бит
    Метод сжатия : С потерями
    Размер потока : 229 Мбайт (3%)
    Заголовок : DUB | Line
    Язык : Russian
    Default : Да
    Forced : Нет

    Аудио #2
    Идентификатор : 3
    Формат : DTS
    Формат/Информация : Digital Theater Systems
    Режим : 16
    Параметр Endianness формата : Big
    Идентификатор кодека : A_DTS
    Продолжительность : 1 ч. 23 м.
    Вид битрейта : Постоянный
    Битрейт : 1509 Кбит/сек
    Каналы : 6 каналов
    Расположение каналов : Front: L C R, Side: L R, LFE
    Частота : 48, 0 КГц
    Битовая глубина : 24 бит
    Метод сжатия : С потерями
    Размер потока : 898 Мбайт (13%)
    Заголовок : Original
    Язык : English
    Default : Нет
    Forced : Нет

    Текст #1
    Идентификатор : 4
    Формат : UTF-8
    Идентификатор кодека : S_TEXT/UTF8
    Идентификатор кодека/Информация : UTF-8 Plain Text
    Заголовок : Full
    Язык : English
    Default : Нет
    Forced : Нет

    Текст #2
    Идентификатор : 5
    Формат : UTF-8
    Идентификатор кодека : S_TEXT/UTF8
    Идентификатор кодека/Информация : UTF-8 Plain Text
    Заголовок : SDH
    Язык : English
    Default : Нет
    Forced : Нет

    Меню
    00: 00: 00.000 : en: 00: 00: 00.000
    00: 03: 07.771 : en: 00: 03: 07.771
    00: 05: 33.959 : en: 00: 05: 33.959
    00: 09: 33.948 : en: 00: 09: 33.948
    00: 12: 23.868 : en: 00: 12: 23.868
    00: 15: 19.043 : en: 00: 15: 19.043
    00: 18: 05.001 : en: 00: 18: 05.001
    00: 20: 52.751 : en: 00: 20: 52.751
    00: 24: 48.779 : en: 00: 24: 48.779
    00: 29: 18.632 : en: 00: 29: 18.632
    00: 31: 29.638 : en: 00: 31: 29.638
    00: 35: 53.985 : en: 00: 35: 53.985
    00: 38: 02.697 : en: 00: 38: 02.697
    00: 41: 47.171 : en: 00: 41: 47.171
    00: 44: 04.809 : en: 00: 44: 04.809
    00: 46: 36.002 : en: 00: 46: 36.002
    00: 49: 43.272 : en: 00: 49: 43.272
    00: 53: 35.462 : en: 00: 53: 35.462
    00: 56: 15.330 : en: 00: 56: 15.330
    00: 58: 58.535 : en: 00: 58: 58.535
    01: 03: 56.207 : en: 01: 03: 56.207
    01: 08: 36.446 : en: 01: 08: 36.446
    01: 11: 25.990 : en: 01: 11: 25.990
    01: 16: 08.105 : en: 01: 16: 08.105



    Релиз подготовил:

    Онлайн видео Эффект Лазаря


    Размер скачиваемого торрента: 6.74 GB (7235241418 Bytes)

    Эффект Лазаря/The Lazarus Effect (2015) BDRip 1080p | Чистый звук
    загрузка...
    Рейтинг →
     (голосов: 1, оценка 5/5, голосовать можно 1 раз )

    Другие торренты по теме:

  • Эффект Лазаря (2015) WEBRip
  • Эффект Лазаря / The Lazarus Effect (2015) WEBRip | Чистый звук
  • Эффект Лазаря / The Lazarus Effect (2015) WEBRip 720p от Twi7ter | Чистый звук
  • Эффект Лазаря / The Lazarus Effect (2015) WEBRip | Чистый звук
  • Эффект Лазаря / The Lazarus Effect (2015) WEBRip от Twi7ter | Чистый звук
  • Эффект Лазаря / The Lazarus Effect (2015) HDRip | Чистый звук
  • Эффект Лазаря / The Lazarus Effect (2015) BDRip 1080p | Чистый звук
  • Эффект Лазаря / The Lazarus Effect (2015) BDRip 720p | Чистый звук


    • Комментарии (0):

      Информация

      Информация

        Посетители, находящиеся в группе Гости, не могут оставлять комментарии в данной новости.

        ↓ Меню



        ↓ Опрос

        А Вы добавили сайт в закладки?
        Да
        Не


        Top 10 за месяц (Фильмы)