.
Авторизация | Регистрация
» » По секрету всему свету (2015) HDTVRip от Шкипер скачать торрент бесплатно




    По секрету всему свету (2015) HDTVRip от Шкипер скачать торрент бесплатно

    Опубликовал: Админ | Дата: 2-06-2015, 03:07 | Просмотров: 87


    Детально о кино
    Русское название: По секрету всему свету
    Создали в: 2015
    Категория жанра: Мелодрама
    Главный режиссер: Роман Просвирнин

    Актеры
    Глафира Тарханова, Руслан Ягудин, Иван Жидков, Андрей Лейвин, Юрий Лейвин, Анастасия Попова, Виктор Рябов, Галина Стаханова, Мария Сокова, Анна Асташкина, Роман Евдокимов

    Сюжет фильма

    Нюта — молодая женщина, живущая в деревне вместе с мужем и двумя маленькими сыновьями. Как настоящая русская женщина, Нюта тянет на своих плечах всю семьи, и взрослого братца, который не хочет самостоятельно жить. Однажды магазин, где работала Нюта, грабят. Весь ущерб хозяева записывают на продавщицу. Нюта в отчаянии — сумма долга слишком большая для нее. Но ни муж, ни брат не собираются помогать несчастной женщине. Единственный, кто встает на сторону Нюты — молодой участковый Авдеев.

    Снималось в: Россия
    Киностудия: Кинокомпания Русское, Студия Олимп
    Время просмотра: 01: 31: 09
    Перевод текста: Не требуется
    Файл
    Кодек для видео: XviD
    Качество фильма: HDTVRip
    Информация о видео: 624x352 (1.77: 1), 25 fps, XviD build 73 ~1006 kbps avg, 0.18 bit/pixel
    Информация о звуке: 48 kHz, MPEG Layer 3, 2 ch, ~128.00 kbps avg
    Субтитры: Отсутствует
    Семпл
    MI
    Общее
    Полное имя : D: Изготовление рипаPo.sekretu.vsemu.svetu.2015.HDTVRip.от Шкипер.avi
    Формат : AVI
    Формат/Информация : Audio Video Interleave
    Размер файла : 746 Мбайт
    Продолжительность : 1 ч. 31 м.
    Общий поток : 1143 Кбит/сек
    Программа кодирования : VirtualDubMod 1.5.10.3 | www.virtualdub-fr.org || (build 2550/release)
    Библиотека кодирования : VirtualDubMod build 2550/release
    Видео
    Идентификатор : 0
    Формат : MPEG-4 Visual
    Профиль формата : Advanced Simple@L5
    Параметр BVOP формата : 1
    Параметр QPel формата : Нет
    Параметр GMC формата : Без точки перехода
    Параметр матрицы формата : Default (MPEG)
    Идентификатор кодека : XVID
    Идентификатор кодека/Подсказка : XviD
    Продолжительность : 1 ч. 31 м.
    Битрейт : 1006 Кбит/сек
    Ширина : 624 пикселя
    Высота : 352 пикселя
    Соотношение сторон : 16: 9
    Частота кадров : 25, 000 кадров/сек
    Цветовое пространство : YUV
    Субдискретизация насыщенности : 4: 2: 0
    Битовая глубина : 8 бит
    Тип развёртки : Прогрессивная
    Метод сжатия : С потерями
    Бит/(Пиксели*Кадры) : 0.183
    Размер потока : 656 Мбайт (88%)
    Библиотека кодирования : XviD 73
    Аудио
    Идентификатор : 1
    Формат : MPEG Audio
    Версия формата : Version 1
    Профиль формата : Layer 3
    Режим : Joint stereo
    Расширение режима : MS Stereo
    Идентификатор кодека : 55
    Идентификатор кодека/Подсказка : MP3
    Продолжительность : 1 ч. 31 м.
    Вид битрейта : Постоянный
    Битрейт : 128 Кбит/сек
    Каналы : 2 канала
    Частота : 48, 0 КГц
    Метод сжатия : С потерями
    Размер потока : 83, 5 Мбайт (11%)
    Выравнивание : Соединение по промежуткам
    Продолжительность промежутка : 40 мс. (1, 00 видеокадр)
    Время предзагрузки промежутка : 504 мс.
    Библиотека кодирования : LAME3.99r
    Залил: surikmas

    Онлайн видео Kingsman: Секретная служба


    Размер скачиваемого торрента: 745.58 MB (781797376 Bytes)


    По секрету всему свету (2015) HDTVRip от Шкипер
    загрузка...
    Рейтинг →
     (голосов: 1, оценка 3/5, голосовать можно 1 раз )

    Другие торренты по теме:

  • По секрету всему свету (2015) HDTV 1080i от MediaClub скачать торрент бесплатно
  • По секрету всему свету (2015) HDTVRip от Files-x скачать торрент бесплатно
  • По секрету всему свету (2015) HDTVRip 720p от MediaClub скачать торрент бесплатно
  • По секрету всему свету (1976) DVDRip | КПК скачать торрент бесплатно
  • По секрету всему свету / 2015 / РУ / WEB-DLRip скачать торрент бесплатно
  • Секрет - Секрет 30 (2013) MP3 торрент скачать бесплатно
  • Хранительница секретов (Маленькие секреты) / Little Secrets (Secret Keeper) / 2001 / ПМ / HDTVRip скачать торрент бесплатно
  • Догра В., Рубенс Д. Дж. - Секреты ультразвуковой диагностики (Секреты медицины) (2009) PDF скачать торрент бесплатно


    • Комментарии (0):

      Информация

      Информация

        Посетители, находящиеся в группе Гости, не могут оставлять комментарии в данной новости.

        ↓ Меню



        ↓ Опрос

        А Вы добавили сайт в закладки?
        Да
        Не


        Top 10 за неделю (Фильмы)