.
Авторизация | Регистрация
» » Мулен Руж / Moulin Rouge! (2001) BDRip 720p от HQ-ViDEO | D, P скачать торрент бесплатно




    Мулен Руж / Moulin Rouge! (2001) BDRip 720p от HQ-ViDEO | D, P скачать торрент бесплатно

    Опубликовал: Админ | Дата: 2-06-2015, 15:01 | Просмотров: 91

    Мулен Руж/Moulin Rouge! (2001) BDRip 720p
    Релиз от HQ-ViDEO

    Детально о кино
    Русское название: Мулен Руж
    Русское название в мировом прокате: Moulin Rouge!
    Создали в: 2001
    Категория жанра: мюзикл, драма, мелодрама
    Главный режиссер: Баз Лурман /Baz Luhrmann/

    Актеры
    Николь Кидман /Nicole Kidman/, Юэн МакГрегор /Ewan McGregor/, Джон Легуизамо /John Leguizamo/, Джим Броудбент /Jim Broadbent/, Ричард Роксбург /Richard Roxburgh/, Гарри МакДональд /Garry McDonald/, Яцек Коман /Jacek Koman/, Мэттью Уиттэт /Matthew Whittet/, Керри Уолкер /Kerry Walker/, Кэролайн О’Коннор /Caroline O;Connor/...

    Сюжет фильма

    Действие фильма разворачивается в 1899 году в знаменитом парижском ночном клубе. Мулен Руж — это не только дискотека и шикарный бордель, но и место, где, повинуясь неудержимому желанию прочувствовать атмосферу праздника, собираются страждущие приобщиться к красоте, свободе, любви и готовые платить за это… наличными.
    Это место, где воедино сходятся трагедия и комедия, роскошные интерьеры начала столетия и современные музыкальные ритмы.
    За любовь самой известной куртизанки Парижа, блистательной Сатин борются двое мужчин, один из которых — бедный писатель Кристиан, с головой окунувшийся в сумасшедший мир ночных развлечений, второй — богатый герцог, готовый купить весь Мулен Руж, лишь бы Сатин провела с ним ночь.

    Снималось в: США, Австралия
    Время просмотра: 02: 07: 49
    Перевод текста: Русский дублированный +Русский профессиональный, многоголосый + Оригинальная, английская дорожка (отдельно)
    Файл
    Кодек для видео: MKV, H.264
    Качество фильма: BDRip 720p (Source: Blu-ray Disc)
    Информация о видео: 5356 kbps; 0.328 bit/pixel; 1280 x 532; 2.40: 1; 23.976 fps
    Информация о звуке #1: AC3 Dolby Digital; 448.00 kbps, 6 Ch - DUB
    Информация о звуке #2: AC3 Dolby Digital; 320.00 kbps, 6 Ch - MVO
    Информация о звуке #3: AC3 Dolby Digital; 448.00 kbps, 6 Ch - ENG (отдельно/скачать с Яндекс Диск)
    Субтитры: Русские (полные, форсированные), Английские.
    Размер скачиваемого торрента: 5.58 GB
    SAMPLE/скачать с Яндекс Диск
    MediaInfo

    General
    Complete name : Mulen.Ruzh.2001.DUALRUS.BDRip.720p.h264.AC3.-HQ-ViDEO.mkv
    Format : Matroska
    File size : 5.58 GiB
    Duration : 2h 7mn
    Overall bit rate : 6 249 Kbps
    Movie name : Moulin Rouge! (2001)
    Encoded date : UTC 2011-01-13 08: 02: 29
    Writing application : mkvmerge v3.3.0 (;Language;) built on Mar 24 2010 14: 59: 24
    Writing library : libebml v0.8.0 + libmatroska v0.9.0
    Video
    ID : 1
    Format : AVC
    Format/Info : Advanced Video Codec
    Format profile : High@L4.1
    Format settings, CABAC : Yes
    Format settings, ReFrames : 6 frames
    Muxing mode : Container profile=Unknown@4.1
    Codec ID : V_MPEG4/ISO/AVC
    Duration : 2h 7mn
    Bit rate : 5 356 Kbps
    Width : 1 280 pixels
    Height : 532 pixels
    Display aspect ratio : 2.40: 1
    Frame rate : 23.976 fps
    Resolution : 8 bits
    Colorimetry : 4: 2: 0
    Scan type : Progressive
    Bits/(Pixel*Frame) : 0.328
    Stream size : 4.78 GiB (86%)
    Title : Encoded by GYN
    Audio #1
    ID : 2
    Format : AC-3
    Format/Info : Audio Coding 3
    Codec ID : A_AC3
    Duration : 2h 7mn
    Bit rate mode : Constant
    Bit rate : 448 Kbps
    Channel(s) : 6 channels
    Channel positions : Front: L C R, Surround: L R, LFE
    Sampling rate : 48.0 KHz
    Stream size : 410 MiB (7%)
    Title : DUB
    Language : Russian
    Audio #2
    ID : 3
    Format : AC-3
    Format/Info : Audio Coding 3
    Codec ID : A_AC3
    Duration : 2h 7mn
    Bit rate mode : Constant
    Bit rate : 320 Kbps
    Channel(s) : 6 channels
    Channel positions : Front: L C R, Surround: L R, LFE
    Sampling rate : 48.0 KHz
    Stream size : 293 MiB (5%)
    Title : MVO
    Language : Russian
    Text #1
    ID : 4
    Format : UTF-8
    Codec ID : S_TEXT/UTF8
    Codec ID/Info : UTF-8 Plain Text
    Title : Forced
    Language : Russian
    Text #2
    ID : 5
    Format : UTF-8
    Codec ID : S_TEXT/UTF8
    Codec ID/Info : UTF-8 Plain Text
    Language : Russian
    Text #3
    ID : 6
    Format : UTF-8
    Codec ID : S_TEXT/UTF8
    Codec ID/Info : UTF-8 Plain Text
    Language : English





    Релиз подготовил: HQ-ViDEO
    Автор рипа: GYN

    Онлайн видео Мулен Руж


    Размер скачиваемого торрента: 5.58 GB (5990663920 Bytes)

    Мулен Руж/Moulin Rouge! (2001) BDRip 720p от HQ-ViDEO | D, P
    загрузка...
    Рейтинг →
     (голосов: 1, оценка 3/5, голосовать можно 1 раз )

    Другие торренты по теме:



      Комментарии (0):

      Информация

      Информация

        Посетители, находящиеся в группе Гости, не могут оставлять комментарии в данной новости.

        ↓ Меню



        ↓ Опрос

        А Вы добавили сайт в закладки?
        Да
        Не


        Top 10 за неделю (Фильмы)