.
Авторизация | Регистрация
» » Ночной беглец / Run All Night (2015) WEB-DL 720p | Чистый звук скачать торрент бесплатно




    Ночной беглец / Run All Night (2015) WEB-DL 720p | Чистый звук скачать торрент бесплатно

    Опубликовал: Админ | Дата: 2-06-2015, 15:01 | Просмотров: 96


    Детально о кино
    Русское название: Ночной беглец
    Русское название в мировом прокате: Run All Night
    Создали в: 2015
    Категория жанра: боевик, триллер, драма, криминал, детектив
    Главный режиссер: Хауме Кольет-Серра

    Актеры
    Лиам Нисон, Юэль Киннаман, Дженезис Родригез, Бойд Холбрук, Винсент Д’Онофрио, Коммон, Эд Харрис, Холт МакКэллани, Брюс МакГилл, Бо Напп

    Сюжет фильма
    Фильм расскажет историю киллера, вступившего в конфликт с бывшим боссом и в итоге вынужденного пуститься в бега, чтобы защитить свою семью от преследования мафией и властями.


    Снималось в: США/Energy Entertainment, RatPac-Dune Entertainment, Vertigo Entertainment
    Время просмотра: 01: 54: 19
    Тип перевода: Дублированное Чистый звук
    Примечание: Присутствуют около 6 минут вставок звука с TS.
    Файл
    Тип видео: MKV
    Качество фильма: WEB-DL 720p
    Информация о видео: 3837 kb/s, 1280x530
    Информация о звуке: Russian: AC3, 384 kb/s (2 ch)/English: AC3, 384 kb/s (6 ch)

    MI

    Format : Matroska
    Format version : Version 4/Version 2
    File size : 3.75 GiB
    Duration : 1h 54mn
    Overall bit rate : 4 699 Kbps
    Encoded date : UTC 2015-06-02 06: 10: 31
    Writing application : mkvmerge v7.8.0 (;River Man;) 64bit built on Mar 27 2015 16: 31: 37
    Writing library : libebml v1.3.1 + libmatroska v1.4.2
    DURATION : 01: 54: 17.952000000
    NUMBER_OF_FRAMES : 214311
    NUMBER_OF_BYTES : 329181696
    _STATISTICS_WRITING_APP : mkvmerge v7.8.0 (;River Man;) 64bit built on Mar 27 2015 16: 31: 37
    _STATISTICS_WRITING_DATE_UTC : 2015-06-02 06: 10: 31
    _STATISTICS_TAGS : BPS DURATION NUMBER_OF_FRAMES NUMBER_OF_BYTES
    Video
    ID : 1
    Format : AVC
    Format/Info : Advanced Video Codec
    Format profile : Main@L3.1
    Format settings, CABAC : No
    Format settings, ReFrames : 2 frames
    Codec ID : V_MPEG4/ISO/AVC
    Duration : 1h 54mn
    Bit rate : 3 837 Kbps
    Width : 1 280 pixels
    Height : 530 pixels
    Display aspect ratio : 2.40: 1
    Frame rate : 23.976 fps
    Color space : YUV
    Chroma subsampling : 4: 2: 0
    Bit depth : 8 bits
    Scan type : Progressive
    Bits/(Pixel*Frame) : 0.236
    Stream size : 3.06 GiB (82%)
    Title : Run.All.Night.2015.720p.WEB-DL.DD5.1.H264-RARBG
    Language : English
    Default : Yes
    Forced : No
    Color primaries : BT.709-5, BT.1361, IEC 61966-2-4, SMPTE RP177
    Transfer characteristics : BT.709-5, BT.1361
    Matrix coefficients : BT.709-5, BT.1361, IEC 61966-2-4 709, SMPTE RP177
    Audio #1
    ID : 2
    Format : AC-3
    Format/Info : Audio Coding 3
    Mode extension : CM (complete main)
    Format settings, Endianness : Big
    Codec ID : A_AC3
    Duration : 1h 54mn
    Bit rate mode : Constant
    Bit rate : 384 Kbps
    Channel(s) : 6 channels
    Channel positions : Front: L C R, Side: L R, LFE
    Sampling rate : 48.0 KHz
    Bit depth : 16 bits
    Compression mode : Lossy
    Stream size : 314 MiB (8%)
    Language : English
    Default : No
    Forced : No
    Audio #2
    ID : 3
    Format : AC-3
    Format/Info : Audio Coding 3
    Mode extension : CM (complete main)
    Format settings, Endianness : Big
    Codec ID : A_AC3
    Duration : 1h 54mn
    Bit rate mode : Constant
    Bit rate : 384 Kbps
    Channel(s) : 2 channels
    Channel positions : Front: L R
    Sampling rate : 48.0 KHz
    Bit depth : 16 bits
    Compression mode : Lossy
    Stream size : 314 MiB (8%)
    Language : Russian
    Default : Yes
    Forced : No
    Menu
    00: 00: 00.000 : en: 1
    00: 09: 02.000 : en: 2
    00: 20: 31.000 : en: 3
    00: 29: 23.000 : en: 4
    00: 41: 16.000 : en: 5
    00: 50: 29.000 : en: 6
    01: 01: 35.000 : en: 7
    01: 10: 56.000 : en: 8
    01: 19: 51.000 : en: 9
    01: 34: 13.000 : en: 10
    01: 39: 08.000 : en: 11
    01: 48: 38.000 : en: 12
    Скриншоты





    Онлайн видео Ночной беглец


    Размер скачиваемого торрента: 3.75 GB (4028631532 Bytes)

    Ночной беглец/Run All Night (2015) WEB-DL 720p | Чистый звук
    загрузка...
    Рейтинг →
     (голосов: 1, оценка 5/5, голосовать можно 1 раз )

    Другие торренты по теме:

  • Ночной беглец / Run All Night (2015) CAMRip | D скачать торрент бесплатно
  • Ночной беглец / Run All Night (2015) WEBRip | Звук с TS скачать торрент бесплатно
  • Ночной беглец / Run All Night (2015) WEBRip 1080p от СЕНЯ009 | D | Чистый звук скачать торрент бесплатно
  • Ночной беглец / Run All Night (2015) WEB-DLRip | Чистый звук скачать торрент бесплатно
  • Ночной беглец / Run All Night (2015) WEB-DL 1080p | Чистый звук скачать торрент бесплатно
  • Ночной беглец / Run All Night (2015) WEB-DLRip | Чистый звук скачать торрент бесплатно
  • Ночной беглец / Run All Night (2015) BDRip 720p | Чистый звук скачать торрент бесплатно
  • Ночной беглец / Run All Night (2015) HDRip | Чистый звук скачать торрент бесплатно


    • Комментарии (0):

      Информация

      Информация

        Посетители, находящиеся в группе Гости, не могут оставлять комментарии в данной новости.

        ↓ Меню



        ↓ Опрос

        А Вы добавили сайт в закладки?
        Да
        Не


        Top 10 за неделю (Фильмы)