.
Авторизация | Регистрация
Хочешь лучшие торренты? Добавь свой email!
Добавить
» » Клуб Завтрак / The Breakfast Club (1985) BDRip 720p от HQ-ViDEO | P торрент скачать бесплатно




    Клуб Завтрак / The Breakfast Club (1985) BDRip 720p от HQ-ViDEO | P торрент скачать бесплатно

    Опубликовал: Админ | Дата: 2-06-2015, 15:01 | Просмотров: 63


    Клуб Завтрак/The Breakfast Club (1985) BDRip 720p
    Релиз от HQ-ViDEO

    Детально о кино
    Русское название: Клуб Завтрак
    Русское название в мировом прокате: The Breakfast Club
    Создали в: 1985
    Категория жанра: драма
    Главный режиссер: Джон Хьюз /John Hughes/

    Актеры
    Эмилио Эстевез /Emilio Estevez/, Пол Глисон /Paul Gleason/, Энтони Майкл Холл /Anthony Michael Hall/, Джон Капелос /John Kapelos/, Джадд Нельсон /Judd Nelson/, Молли Рингуолд /Molly Ringwald/, Элли Шиди /Ally Sheedy/, Перри Кроуфорд /Perry Crawford/, Мэри Кристиан /Mary Christian/, Рон Дин /Ron Dean/...

    Сюжет фильма

    Пятеро школьников в наказание за проступки вынуждены приехать в школу в выходной день и написать сочинение Кем вы себя представляете? Молодым людям с большим трудом удается разобраться в своих проблемах...

    Снималось в: США
    Время просмотра: 01: 37: 04
    Перевод текста: Русский профессиональный, многоголосый (СТС) +Русский профессиональный, многоголосый (R5) (отдельно) + Оригинальная, английская дорожка (отдельно)
    Файл
    Кодек для видео: MKV, H.264
    Качество фильма: BDRip 720p (Source: Blu-ray Disc)
    Информация о видео: 5864 kbps; 0.276 bit/pixel; 1280 x 692; 1.85: 1; 23.976 fps
    Информация о звуке #1: AC3 Dolby Digital; 448.00 kbps, 6 Ch - RUS MVO STS
    Информация о звуке #2: AC3 Dolby Digital; 448.00 kbps, 6 Ch - RUS MVO R5 (отдельно/скачать с Яндекс Диск)
    Информация о звуке #3: AC3 Dolby Digital; 448.00 kbps, 6 Ch - ENG (отдельно/скачать с Яндекс Диск)
    Субтитры: Русские, Английские.
    Размер скачиваемого торрента: 4.37 GB
    Цитата Кто-тописал:
    В контейнер поставлена дорожка СТС а не R5.
    Причины: голоса приятнее, точнее перевод (упущения есть но не такие большие как в лицензии), более эмоциональная озвучка.
    За Русский профессиональный, многоголосый перевод (CTC) СПАСИБО yangus.
    Дорожка СТС самодельная: из 1.0 выделил голоса, обработал и точно наложил на центр оригинала.

    SAMPLE/скачать с Яндекс Диск
    MediaInfo

    General
    Complete name : Klub.Zavtrak.1985.RUS.BDRip.720p.h264.AC3.-HQ-ViDEO.mkv
    Format : Matroska
    File size : 4.37 GiB
    Duration : 1h 37mn
    Overall bit rate : 6 441 Kbps
    Movie name : The Breakfast Club (1985)
    Encoded date : UTC 2010-12-30 07: 53: 28
    Writing application : mkvmerge v3.3.0 (;Language;) built on Mar 24 2010 14: 59: 24
    Writing library : libebml v0.8.0 + libmatroska v0.9.0
    Video
    ID : 1
    Format : AVC
    Format/Info : Advanced Video Codec
    Format profile : High@L4.1
    Format settings, CABAC : Yes
    Format settings, ReFrames : 6 frames
    Muxing mode : Container profile=Unknown@4.1
    Codec ID : V_MPEG4/ISO/AVC
    Duration : 1h 36mn
    Bit rate : 5 864 Kbps
    Width : 1 280 pixels
    Height : 692 pixels
    Display aspect ratio : 1.850
    Frame rate : 23.976 fps
    Resolution : 8 bits
    Colorimetry : 4: 2: 0
    Scan type : Progressive
    Bits/(Pixel*Frame) : 0.276
    Stream size : 3.97 GiB (91%)
    Title : Encoded by GYN
    Audio
    ID : 2
    Format : AC-3
    Format/Info : Audio Coding 3
    Codec ID : A_AC3
    Duration : 1h 37mn
    Bit rate mode : Constant
    Bit rate : 448 Kbps
    Channel(s) : 6 channels
    Channel positions : Front: L C R, Surround: L R, LFE
    Sampling rate : 48.0 KHz
    Stream size : 311 MiB (7%)
    Title : MVO - CTC yangus
    Language : Russian
    Text #1
    ID : 3
    Format : UTF-8
    Codec ID : S_TEXT/UTF8
    Codec ID/Info : UTF-8 Plain Text
    Language : Russian
    Text #2
    ID : 4
    Format : UTF-8
    Codec ID : S_TEXT/UTF8
    Codec ID/Info : UTF-8 Plain Text
    Language : English





    Релиз подготовил: HQ-ViDEO
    Автор рипа: GYN

    Онлайн видео Клуб Завтрак


    Размер скачиваемого торрента: 4.37 GB (4689383723 Bytes)

    Клуб Завтрак/The Breakfast Club (1985) BDRip 720p от HQ-ViDEO | P
    загрузка...
    Рейтинг →
     (голосов: 1, оценка 4/5, голосовать можно 1 раз )

    Другие торренты по теме:

  • Клуб выходного дня / Клуб Завтрак / The Breakfast Club (1985) BDRip-AVC | L1
  • Клуб Завтрак / The Breakfast Club (1985) BDRip-AVC от MediaClub | P
  • Клуб Завтрак / The Breakfast Club (1985) HDRip | СТС скачать через торрент бесплатно


    • Комментарии (0):

      Информация

      Информация

        Посетители, находящиеся в группе Гости, не могут оставлять комментарии в данной новости.

        ↓ Меню



        ↓ Опрос

        А Вы добавили сайт в закладки?
        Да
        Не


        Top 10 за месяц (Фильмы)