.
Авторизация | Регистрация




Будни (1940) SATRip от New-Team скачать торрент бесплатно

Опубликовал: Админ | Дата: 2-06-2015, 21:00 | Просмотров: 143


Снималось в: СССР
Создали в: Беларусьфильм, Мосфильм
Категория жанра: драма
Создали в: 1940
Время просмотра: 01: 20: 09
Перевод текста: Не требуется
Субтитры подготовлены: нет
Оригинальная аудиодорожка: русский
Главный режиссер: Борис Шрейбер

Актеры

Борис Терентьев, Галина Сергеева, Иван Новосельцев, Михаил Державин (ст.), Елена Кузнецова (IV), Антоний Ходурский, Юра Новицкий, Виктор Пестовский...
Описание:
Однажды привычный порядок одного из крупных аэропортов страны нарушается: летчик Зубов сажает свой самолет во время тумана точно и красиво, но вопреки предписанию. Очередное лихачество Зубова завершается тем, что он топит в болоте самолет, едва не погубив себя и приемного сына инженера аэропорта — Гвоздика. Зубова лишают на полгода прав пилота, но оставляют в коллективе…



Источник: DVB
Качество фильма видео: SATRip
Тип видео видео: AVI
Виде: 640x480 (4: 3), 25 fps, XviD ~ 1162 kbps avg, 0.151 bit/pixel
Информация о звуке: 48 kHz, MP3 2.0, 128 kbps
Раздача от:
MediaInfo

Общее
Полное имя : Budni.1940.SATRip-745_New-team_by_AVP_Studio.avi
Формат : AVI
Формат/Информация : Audio Video Interleave
Размер файла : 745 Мбайт
Продолжительность : 1 ч. 20 м.
Общий поток : 1300 Кбит/сек
Программа кодирования : VirtualDubModRus 1.5.10.2 (build 2542/release)
Библиотека кодирования : VirtualDubMod build 2542/release
Видео
Идентификатор : 0
Формат : MPEG-4 Visual
Профиль формата : Advanced Simple@L5
Параметр BVOP формата : 1
Параметр QPel формата : Нет
Параметр GMC формата : Без точки перехода
Параметр матрицы формата : Выборочная
Идентификатор кодека : XVID
Идентификатор кодека/Подсказка : XviD
Продолжительность : 1 ч. 20 м.
Битрейт : 1162 Кбит/сек
Ширина : 640 пикселей
Высота : 480 пикселей
Соотношение сторон : 4: 3
Частота кадров : 25, 000 кадров/сек
Цветовое пространство : YUV
Субдискретизация насыщенности : 4: 2: 0
Битовая глубина : 8 бит
Тип развёртки : Прогрессивная
Метод сжатия : С потерями
Бит/(Пиксели*Кадры) : 0.151
Размер потока : 666 Мбайт (89%)
Библиотека кодирования : XviD 73
Аудио
Идентификатор : 1
Формат : MPEG Audio
Версия формата : Version 1
Профиль формата : Layer 3
Идентификатор кодека : 55
Идентификатор кодека/Подсказка : MP3
Продолжительность : 1 ч. 20 м.
Вид битрейта : Постоянный
Битрейт : 128 Кбит/сек
Каналы : 2 канала
Частота : 48, 0 КГц
Метод сжатия : С потерями
Размер потока : 73, 4 Мбайт (10%)
Выравнивание : Соединение по промежуткам
Продолжительность промежутка : 40 мс. (1, 00 видеокадр)
Время предзагрузки промежутка : 504 мс.
Библиотека кодирования : LAME3.99r
Залил: AVPStudio
Размер скачиваемого торрента: 744.94 MB (781125632 Bytes)


Будни (1940) SATRip от New-Team
загрузка...
Рейтинг →
 (голосов: 1, оценка 5/5, голосовать можно 1 раз )

Другие торренты по теме:

  • National Geographic: Будни криминалистов / Mystery Manhunt (2011) SATRip торрент скачать бесплатно
  • Будни аэропорта (2014) WEBRip скачать через торрент бесплатно
  • Будни гарема торрент скачать бесплатно
  • Литературная рабыня. Будни и праздники скачать через торрент бесплатно
  • Будни аэропорта 2 / The Airport Diary 2 (2012 - 2014) Web-DLRip от New-Team | D скачать торрент бесплатно
  • Будни аэропорта / The Airport Diary (2012) WEB-DL 720p | D скачать торрент бесплатно
  • Будни грузинских дорожников / 1974-1980 / РУ / TVRip скачать торрент бесплатно
  • Будни и праздники Серафимы Глюкиной (2 серии из 2) / 1988 / РУ / DVDRip скачать торрент бесплатно


    • Комментарии (0):

      Информация

      Информация

        Посетители, находящиеся в группе Гости, не могут оставлять комментарии в данной новости.

        ↓ Меню



        ↓ Опрос

        А Вы добавили сайт в закладки?
        Да
        Не


        Top 10 за неделю (Фильмы)