.
Авторизация | Регистрация




Оно / It Follows (2014) BDRip 1080p | L2 скачать торрент бесплатно

Опубликовал: Админ | Дата: 3-06-2015, 00:02 | Просмотров: 130



Детально о кино
Русское название: Оно/Оно следует за тобой
Русское название в мировом прокате: It Follows
Создали в: 2014
Категория жанра: ужасы, детектив
Главный режиссер: Дэвид Роберт Митчелл

Актеры
Кейр Гилкрист, Carollette Phillips, Лорен Басс, Оливия Луккарди, Лили Сепе, Майка Монро, Джейк Вири, Дэниэл Дзоватто, Чарльз Гертнер, Бэйли Спрай


Сюжет фильма
После сексуальной связи 19-летнюю девушку по имени Джей начинают мучать странные видения и непреодолимое чувство того, что кто-то или что-то за ней следит…



Снималось в: США/Northern Lights Films, Animal Kingdom, Two Flints
Время просмотра: 01: 40: 13
Перевод текста: Любительский (двухголосый, закадровый)- Киностудия Пиратского дубляжа

Файл
Качество фильма: BDRip 1080p
Тип видео: MKV
Информация о видео: MPEG4/AVC, 9420 Кбит/сек, 1920х800 (2.40: 1), 23.976 кадров/сек
Информация о звуке 1: AC3, 6 каналов, 448 Кбит/сек | Русский
Информация о звуке 2: AC3, 6 каналов, 640 Кбит/сек | Английский
Субтитры: Русские, английские
Навигация по главам: Есть

MediaInfo:
Общее
Уникальный идентификатор : 230024333321178344876041594490581622487 (0xAD0D133CE7DA1E3B8CECAB3A0EEB1ED7)
Полное имя : It Follows. (2014) BDRip 1080p.mkv
Формат : Matroska
Версия формата : Version 2
Размер файла : 7, 36 Гбайт
Продолжительность : 1 ч. 40 м.
Общий поток : 10, 5 Мбит/сек
Название фильма : It Follows. 2014
Дата кодирования : UTC 2015-06-02 11: 09: 51
Программа кодирования : mkvmerge v5.8.0 (;No Sleep/Pillow;) built on Sep 2 2012 15: 37: 04
Библиотека кодирования : libebml v1.2.3 + libmatroska v1.3.0

Видео
Идентификатор : 1
Формат : AVC
Формат/Информация : Advanced Video Codec
Профиль формата : High@L4.1
Параметр CABAC формата : Да
Параметр ReFrames формата : 5 кадров
Идентификатор кодека : V_MPEG4/ISO/AVC
Продолжительность : 1 ч. 40 м.
Битрейт : 9420 Кбит/сек
Ширина : 1920 пикселей
Высота : 800 пикселей
Соотношение сторон : 2, 40: 1
Режим частоты кадров : Постоянный
Частота кадров : 23, 976 кадра/сек
Цветовое пространство : YUV
Субдискретизация насыщенности : 4: 2: 0
Битовая глубина : 8 бит
Тип развёртки : Прогрессивная
Бит/(Пиксели*Кадры) : 0.256
Размер потока : 6, 45 Гбайт (88%)
Заголовок : AMIABLE
Библиотека кодирования : x264 core 146 r2538 121396c
Настройки программы : cabac=1/ref=5/deblock=1: -3: -3/analyse=0x3: 0x113/me=umh/subme=8/psy=1/psy_rd=1.00: 0.00/mixed_ref=1/me_range=16/chroma_me=1/trellis=1/8x8dct=1/cqm=0/deadzone=21, 11/fast_pskip=1/chroma_qp_offset=-2/threads=18/lookahead_threads=3/sliced_threads=0/nr=0/decimate=1/interlaced=0/bluray_compat=0/constrained_intra=0/bframes=3/b_pyramid=2/b_adapt=2/b_bias=0/direct=3/weightb=1/open_gop=0/weightp=2/keyint=240/keyint_min=24/scenecut=40/intra_refresh=0/rc_lookahead=50/rc=2pass/mbtree=1/bitrate=9420/ratetol=1.0/qcomp=0.60/qpmin=0/qpmax=69/qpstep=4/cplxblur=20.0/qblur=0.5/ip_ratio=1.40/aq=1: 1.00
Язык : English
Default : Да
Forced : Нет

Аудио #1
Идентификатор : 2
Формат : AC-3
Формат/Информация : Audio Coding 3
Расширение режима : CM (complete main)
Параметр Endianness формата : Big
Идентификатор кодека : A_AC3
Продолжительность : 1 ч. 40 м.
Вид битрейта : Постоянный
Битрейт : 448 Кбит/сек
Каналы : 6 каналов
Расположение каналов : Front: L C R, Side: L R, LFE
Частота : 48, 0 КГц
Битовая глубина : 16 бит
Метод сжатия : С потерями
Размер потока : 321 Мбайт (4%)
Заголовок : L2 | Студия Пиратского дубляжа
Язык : Russian
Default : Да
Forced : Нет

Аудио #2
Идентификатор : 3
Формат : AC-3
Формат/Информация : Audio Coding 3
Расширение режима : CM (complete main)
Параметр Endianness формата : Big
Идентификатор кодека : A_AC3
Продолжительность : 1 ч. 40 м.
Вид битрейта : Постоянный
Битрейт : 640 Кбит/сек
Каналы : 6 каналов
Расположение каналов : Front: L C R, Side: L R, LFE
Частота : 48, 0 КГц
Битовая глубина : 16 бит
Метод сжатия : С потерями
Размер потока : 459 Мбайт (6%)
Заголовок : Original
Язык : English
Default : Нет
Forced : Нет

Текст #1
Идентификатор : 4
Формат : UTF-8
Идентификатор кодека : S_TEXT/UTF8
Идентификатор кодека/Информация : UTF-8 Plain Text
Заголовок : Full
Язык : Russian
Default : Нет
Forced : Нет

Текст #2
Идентификатор : 5
Формат : UTF-8
Идентификатор кодека : S_TEXT/UTF8
Идентификатор кодека/Информация : UTF-8 Plain Text
Заголовок : Full
Язык : English
Default : Нет
Forced : Нет

Меню
00: 00: 00.000 : en: 00: 00: 00.000
00: 03: 53.150 : en: 00: 03: 53.150
00: 08: 46.901 : en: 00: 08: 46.901
00: 13: 58.671 : en: 00: 13: 58.671
00: 22: 05.115 : en: 00: 22: 05.115
00: 27: 20.931 : en: 00: 27: 20.931
00: 32: 12.514 : en: 00: 32: 12.514
00: 44: 38.467 : en: 00: 44: 38.467
00: 49: 14.994 : en: 00: 49: 14.994
00: 53: 58.777 : en: 00: 53: 58.777
01: 02: 48.056 : en: 01: 02: 48.056
01: 07: 45.019 : en: 01: 07: 45.019
01: 16: 13.485 : en: 01: 16: 13.485
01: 26: 19.174 : en: 01: 26: 19.174
01: 31: 18.681 : en: 01: 31: 18.681
01: 35: 42.195 : en: 01: 35: 42.195



Релиз подготовил:
Размер скачиваемого торрента: 7.36 GB (7897512495 Bytes)

Оно/It Follows (2014) BDRip 1080p | L2
загрузка...
Рейтинг →
 (голосов: 1, оценка 5/5, голосовать можно 1 раз )

Другие торренты по теме:

  • Они / Ils (2006) BDRip-AVC торрент скачать бесплатно
  • Он и Она / Him Her (2012) HDTVRip торрент скачать бесплатно
  • Если любить... как они / If in love... like them / Perhaps Love / A Special Promise (2007) TVRip-AVC от BTT-TEAM и AniFilm торрент скачать бесплатно
  • Она и Её Кот / She and Her Cat / She and Her Cat / Kanojo to Kanojo no neko (1999) BDRip от Мифоград | L2 торрент скачать бесплатно
  • Они Слышат / Blood Creek (2006) DVDRip торрент скачать бесплатно
  • Они были солдатами 2 / Saints and Soldiers: Airborne Creed (2012) BDRip 720p | НТВ торрент скачать бесплатно
  • Иногда они возвращаются / Sometimes They Come Back (1991) HDTVRip | P2 торрент скачать бесплатно
  • Убийственный холод / Иногда они возвращаются снова и снова / Sometimes They Come Back... for More (1998) DVDRip | P торрент скачать бесплатно


    • Комментарии (0):

      Информация

      Информация

        Посетители, находящиеся в группе Гости, не могут оставлять комментарии в данной новости.

        ↓ Меню



        ↓ Опрос

        А Вы добавили сайт в закладки?
        Да
        Не


        Top 10 за неделю (Фильмы)