.
Авторизация | Регистрация
Хочешь лучшие торренты? Добавь свой email!
Добавить
» » Робот по имени Чаппи / Chappie (2015) BDRip-AVC | iTunes торрент скачать бесплатно




    Робот по имени Чаппи / Chappie (2015) BDRip-AVC | iTunes торрент скачать бесплатно

    Опубликовал: Админ | Дата: 3-06-2015, 14:06 | Просмотров: 119

    Робот по имени Чаппи/Chappie (2015) BDRip-AVC

    Детально о кино:
    Русское название: Робот по имени Чаппи
    Русское название в мировом прокате: Chappie
    Создали в: 2015
    Категория жанра: фантастика, боевик, триллер
    Главный режиссер: Нил Бломкамп/Neill Blomkamp

    Актеры
    Шарлто Копли, Дев Патель, Ниндзя, Йоланди Фиссер, Хосе Пабло Кантильо, Хью Джекман, Сигурни Уивер, Брэндон Оре, Джонни Селема, Андерсон Купер

    Сюжет фильма
    Чаппи - вундеркинд. Как и любой другой ребенок, он попадает под влияние своего окружения, и только его сердце и душа помогут ему найти свой путь. Но есть одна вещь, которая делает Чаппи непохожим на всех остальных: он – первый робот, способный чувствовать и думать.
    I am discovery. I am wonder. I am chappie

    Автор рипа: Elheym
    Снималось в: США, Мексика, ЮАР ? Alpha Core, Columbia Pictures, Genre Films, LStar Capital, Media Rights Capital, Ollin Studio, Simon Kinberg Productions, Sony Pictures Entertainment (SPE)
    Время просмотра: 02: 00: 19
    Перевод текста: Профессиональный (полное дублирование) iTunes
    Оригинальная аудиодорожка: английская
    Субтитры: русские (полные, форсированные), украинские (полные), английские (полные х2, SDH, SDH цветные)
    Главы: присутствуют, сохранены оригинальные
    Файл:
    Тип видео: MKV
    Качество фильма: BDRip-AVC (источник: / Blu-ray Remux CHAPPIE_REMUX_HDCLUB/ 1080p)
    Информация о видео: 1152x480 (2.40: 1), 23.976 fps, MPEG-4 AVC, ~3200 kbps avg, 0.241 bit/pixel
    Информация о звуке #1: 48 kHz, AC3 Dolby Digital, 3/2 (L, C, R, l, r) + LFE ch, ~384 kbps avg (DUB)
    Информация о звуке #2: 48 kHz, AC3 Dolby Digital, 2/0 (L, R) ch, ~192 kbps avg (UKR)
    Информация о звуке #3: 48 kHz, AC3 Dolby Digital, 3/2 (L, C, R, l, r) + LFE ch, ~448 kbps avg (ENG)
    Размер скачиваемого торрента: 3.55 GB
    Сэмпл: скачать

    MediaInfo

    Уникальный идентификатор : 176306190091994723175074909980445567914 (0x84A3564B6482BBD99436D5FF3BD2EBAA)
    Полное имя : Chappie.2015.TRIPLE.BDRip-AVC.x264.mkv
    Формат : Matroska
    Версия формата : Version 2
    Размер файла : 3, 55 Гбайт
    Продолжительность : 2 ч. 0 м.
    Общий поток : 4224 Кбит/сек
    Название фильма : Робот по имени Чаппи/Chappie (2015) BDRip-AVC by Elheym
    Дата кодирования : UTC 2015-06-02 16: 19: 25
    Программа кодирования : mkvmerge v5.2.0 (;I can;t explain;) built on Dec 18 2011 18: 12: 03
    Библиотека кодирования : libebml v1.2.3 + libmatroska v1.3.0
    Attachements : Cover.jpg
    Видео
    Идентификатор : 1
    Формат : AVC
    Формат/Информация : Advanced Video Codec
    Профиль формата : High@L4
    Параметр CABAC формата : Да
    Параметр ReFrames формата : 14 кадров
    Идентификатор кодека : V_MPEG4/ISO/AVC
    Продолжительность : 2 ч. 0 м.
    Битрейт : 3200 Кбит/сек
    Ширина : 1152 пикселя
    Высота : 480 пикселей
    Соотношение сторон : 2, 40: 1
    Режим частоты кадров : Постоянный
    Частота кадров : 23, 976 кадра/сек
    Цветовое пространство : YUV
    Субдискретизация насыщенности : 4: 2: 0
    Битовая глубина : 8 бит
    Тип развёртки : Прогрессивная
    Бит/(Пиксели*Кадры) : 0.241
    Размер потока : 2, 62 Гбайт (74%)
    Заголовок : Робот по имени Чаппи/Chappie (2015) BDRip-AVC by Elheym
    Библиотека кодирования : x264 core 146 r0+2586 e393126 t_mod_Custom 8-bit@all X86_64
    Настройки программы : cabac=1/ref=14/deblock=1: -2: -2/analyse=0x3: 0x113/me=umh/subme=11/psy=1/fade_compensate=0.00/psy_rd=1.13: 0.00/mixed_ref=1/me_range=32/chroma_me=1/trellis=2/8x8dct=1/cqm=0/deadzone=21, 11/fast_pskip=0/chroma_qp_offset=-2/threads=6/lookahead_threads=2/sliced_threads=0/nr=0/decimate=0/interlaced=0/bluray_compat=0/constrained_intra=0/fgo=0/bframes=16/b_pyramid=2/b_adapt=2/b_bias=0/direct=3/weightb=1/open_gop=0/weightp=2/keyint=230/keyint_min=23/scenecut=40/intra_refresh=0/rc_lookahead=80/rc=2pass/mbtree=0/bitrate=3200/ratetol=1.0/qcomp=0.80/qpmin=0: 0: 0/qpmax=69: 69: 69/qpstep=4/cplxblur=20.0/qblur=0.5/vbv_maxrate=20000/vbv_bufsize=25000/nal_hrd=none/filler=0/ip_ratio=1.40/pb_ratio=1.30/aq=2: 0.50/aq-sensitivity=15.00/aq-factor=1.00: 1.00: 1.00/aq2=0/aq3=0/zones=162627, 173079, b=0.24
    Язык : English
    Default : Да
    Forced : Нет
    Аудио #1
    Идентификатор : 2
    Формат : AC-3
    Формат/Информация : Audio Coding 3
    Расширение режима : CM (complete main)
    Параметр Endianness формата : Big
    Идентификатор кодека : A_AC3
    Продолжительность : 2 ч. 0 м.
    Вид битрейта : Постоянный
    Битрейт : 384 Кбит/сек
    Каналы : 6 каналов
    Расположение каналов : Front: L C R, Side: L R, LFE
    Частота : 48, 0 КГц
    Метод сжатия : С потерями
    Размер потока : 330 Мбайт (9%)
    Заголовок : АС3 5.1 @ 384 kbps - Dub, iTunes
    Язык : Russian
    Default : Нет
    Forced : Нет
    Аудио #2
    Идентификатор : 3
    Формат : AC-3
    Формат/Информация : Audio Coding 3
    Расширение режима : CM (complete main)
    Параметр Endianness формата : Big
    Идентификатор кодека : A_AC3
    Продолжительность : 2 ч. 0 м.
    Вид битрейта : Постоянный
    Битрейт : 192 Кбит/сек
    Каналы : 2 канала
    Расположение каналов : Front: L R
    Частота : 48, 0 КГц
    Метод сжатия : С потерями
    Размер потока : 165 Мбайт (5%)
    Заголовок : АС3 2.0 @ 192 kbps - Dub, iTunes
    Язык : Ukrainian
    Default : Нет
    Forced : Нет
    Аудио #3
    Идентификатор : 4
    Формат : AC-3
    Формат/Информация : Audio Coding 3
    Расширение режима : CM (complete main)
    Параметр Endianness формата : Big
    Идентификатор кодека : A_AC3
    Продолжительность : 2 ч. 0 м.
    Вид битрейта : Постоянный
    Битрейт : 448 Кбит/сек
    Каналы : 6 каналов
    Расположение каналов : Front: L C R, Side: L R, LFE
    Частота : 48, 0 КГц
    Метод сжатия : С потерями
    Размер потока : 386 Мбайт (11%)
    Заголовок : АС3 5.1 @ 448 kbps - Original
    Язык : English
    Default : Нет
    Forced : Нет
    Текст #1
    Идентификатор : 5
    Формат : UTF-8
    Идентификатор кодека : S_TEXT/UTF8
    Идентификатор кодека/Информация : UTF-8 Plain Text
    Заголовок : Full
    Язык : Russian
    Default : Нет
    Forced : Нет
    Текст #2
    Идентификатор : 6
    Формат : UTF-8
    Идентификатор кодека : S_TEXT/UTF8
    Идентификатор кодека/Информация : UTF-8 Plain Text
    Заголовок : Forced
    Язык : Russian
    Default : Нет
    Forced : Нет
    Текст #3
    Идентификатор : 7
    Формат : UTF-8
    Идентификатор кодека : S_TEXT/UTF8
    Идентификатор кодека/Информация : UTF-8 Plain Text
    Заголовок : Full
    Язык : Ukrainian
    Default : Нет
    Forced : Нет
    Текст #4
    Идентификатор : 8
    Формат : UTF-8
    Идентификатор кодека : S_TEXT/UTF8
    Идентификатор кодека/Информация : UTF-8 Plain Text
    Заголовок : Full v.1
    Язык : English
    Default : Нет
    Forced : Нет
    Текст #5
    Идентификатор : 9
    Формат : UTF-8
    Идентификатор кодека : S_TEXT/UTF8
    Идентификатор кодека/Информация : UTF-8 Plain Text
    Заголовок : Full v.2
    Язык : English
    Default : Нет
    Forced : Нет
    Текст #6
    Идентификатор : 10
    Формат : UTF-8
    Идентификатор кодека : S_TEXT/UTF8
    Идентификатор кодека/Информация : UTF-8 Plain Text
    Заголовок : Full SDH
    Язык : English
    Default : Нет
    Forced : Нет
    Текст #7
    Идентификатор : 11
    Формат : UTF-8
    Идентификатор кодека : S_TEXT/UTF8
    Идентификатор кодека/Информация : UTF-8 Plain Text
    Заголовок : Full SDH Colored
    Язык : English
    Default : Нет
    Forced : Нет
    Меню
    00: 00: 00.000 : : Chapter 01
    00: 03: 37.008 : : Chapter 02
    00: 09: 55.260 : : Chapter 03
    00: 13: 50.495 : : Chapter 04
    00: 21: 53.644 : : Chapter 05
    00: 31: 17.541 : : Chapter 06
    00: 37: 19.319 : : Chapter 07
    00: 46: 58.730 : : Chapter 08
    00: 54: 36.690 : : Chapter 09
    01: 06: 12.927 : : Chapter 10
    01: 09: 57.649 : : Chapter 11
    01: 16: 48.394 : : Chapter 12
    01: 24: 59.550 : : Chapter 13
    01: 31: 35.197 : : Chapter 14
    01: 42: 36.942 : : Chapter 15
    01: 50: 03.595 : : Chapter 16

    x264 log

    x264 info: frame I: 1471 Avg QP: 15.34 size: 95990
    x264 info: frame P: 42600 Avg QP: 18.38 size: 32242
    x264 info: frame B: 129009 Avg QP: 20.73 size: 10625
    x264 info: consecutive B-frames: 3.2% 4.6% 10.3% 33.5% 16.6% 20.8% 5.6% 2.8% 0.6% 0.4% 0.3% 0.5% 0.0% 0.0% 0.0% 0.5% 0.0%
    x264 info: ref P L0: 50.9% 11.3% 15.1% 5.8% 4.2% 3.1% 2.5% 1.5% 1.2% 1.1% 0.9% 0.8% 0.7% 0.8% 0.1% 0.0%
    x264 info: ref B L0: 78.5% 9.8% 4.4% 2.0% 1.4% 1.1% 0.8% 0.5% 0.4% 0.4% 0.3% 0.2% 0.1%
    x264 info: ref B L1: 93.2% 6.8%


    Онлайн видео Робот по имени Чаппи


    Размер скачиваемого торрента: 3.55 GB (3812401578 Bytes)

    Робот по имени Чаппи/Chappie (2015) BDRip-AVC | iTunes
    загрузка...
    Рейтинг →
     (голосов: 1, оценка 3/5, голосовать можно 1 раз )

    Другие торренты по теме:

  • Робот по имени Чаппи / Chappie (2015) CAMRip
  • Робот по имени Чаппи / Chappie (2015) TS *PROPER*
  • Робот по имени Чаппи / Chappie (2015) TS
  • Робот по имени Чаппи / Chappie (2015) WEB-DL 720p | iTunes
  • Робот по имени Чаппи / Chappie (2015) WEB-DLRip от Scarabey | iTunes
  • Робот по имени Чаппи / Chappie (2015) WEB-DLRip-AVC | iTunes
  • Робот по имени Чаппи / Chappie (2015) HDRip | iTunes
  • Робот по имени Чаппи / Chappie (2015) BDRip 720p | iTunes


    • Комментарии (0):

      Информация

      Информация

        Посетители, находящиеся в группе Гости, не могут оставлять комментарии в данной новости.

        ↓ Меню



        ↓ Опрос

        А Вы добавили сайт в закладки?
        Да
        Не


        Top 10 за месяц (Фильмы)