.
Авторизация | Регистрация
» » Между делом / Unfinished Business (2015) BDRip 720p | iTunes скачать торрент бесплатно




    Между делом / Unfinished Business (2015) BDRip 720p | iTunes скачать торрент бесплатно

    Опубликовал: Админ | Дата: 4-06-2015, 03:07 | Просмотров: 119


    Детально о кино
    Русское название: Между делом
    Русское название в мировом прокате: Unfinished Business
    Создали в: 2015
    Категория жанра: Комедия
    Снималось в: США, Escape Artists, New Regency Pictures, Regency Enterprises, Studio Babelsberg
    Главный режиссер: Кен Скотт

    Актеры
    Винс Вон, Том Уилкинсон, Дэйв Франко, Сиенна Миллер, Ник Фрост, Джеймс Марсден, Джун Рафаэль, Бриттон Сир, Элла Андерсон, Кен Скотт

    Сюжет фильма
    Фильм Между делом повествует нам о приключениях трудолюбивого бизнесмена, владельца малого бизнеса и двух его друзей. Но совершенно обычная деловая поездка превращается в нечто невообразимое. Участие в фетиш-шоу, в международной экономической конференции. Все это лишь малая часть приключений героев фильма.
    Файл
    Качество фильма: BDRip (720p)
    Информация о видео: MPEG-4 AVC, 6235 Кбит/с, 1280x532
    Информация о звуке: Русский, (AC3, 6 ch, 384 Кбит/с), английский (DTS, 6 ch, 1510 Кбит/с)
    Размер скачиваемого торрента: 5.26 ГБ
    Время просмотра: 01: 30: 56
    Перевод текста: Дублированный iTunes
    Субтитры: Английские
    MI
    Общее
    Уникальный идентификатор : 216881513942787390266130247833681443284 (0xA329DC36A23EE2C6B60C71CBEC00B9D4)
    Полное имя : C: Unfinished.Business.2015.720p.BluRay.DTS.x264-HDAccess.mkv
    Формат : Matroska
    Версия формата : Version 2
    Размер файла : 5, 26 Гбайт
    Продолжительность : 1 ч. 30 м.
    Общий поток : 8282 Кбит/сек
    Дата кодирования : UTC 2015-06-03 18: 37: 43
    Программа кодирования : mkvmerge v7.9.0 (;Birds;) 64bit
    Библиотека кодирования : libebml v1.3.1 + libmatroska v1.4.2
    DURATION : 01: 28: 40.814000000
    NUMBER_OF_FRAMES : 1930
    NUMBER_OF_BYTES : 60154
    _STATISTICS_WRITING_APP : mkvmerge v7.8.0 (;River Man;) 64bit built on Mar 27 2015 16: 31: 37
    _STATISTICS_WRITING_DATE_UTC : 2015-05-30 11: 31: 43
    _STATISTICS_TAGS : BPS DURATION NUMBER_OF_FRAMES NUMBER_OF_BYTES
    Видео
    Идентификатор : 1
    Формат : AVC
    Формат/Информация : Advanced Video Codec
    Профиль формата : High@L4.1
    Параметр CABAC формата : Да
    Параметр ReFrames формата : 12 кадров
    Идентификатор кодека : V_MPEG4/ISO/AVC
    Продолжительность : 1 ч. 30 м.
    Битрейт : 6224 Кбит/сек
    Ширина : 1280 пикселей
    Высота : 532 пикселя
    Соотношение сторон : 2, 40: 1
    Режим частоты кадров : Постоянный
    Частота кадров : 23, 976 кадра/сек
    Цветовое пространство : YUV
    Субдискретизация насыщенности : 4: 2: 0
    Битовая глубина : 8 бит
    Тип развёртки : Прогрессивная
    Бит/(Пиксели*Кадры) : 0.381
    Размер потока : 3, 96 Гбайт (75%)
    Библиотека кодирования : x264 core 142 r2431+42 c69a006 tMod 8-bit@all X86_64
    Настройки программы : cabac=1/ref=12/deblock=1: -3: -3/analyse=0x3: 0x133/me=umh/subme=10/psy=1/fade_compensate=0.00/psy_rd=1.00: 0.00/mixed_ref=1/me_range=24/chroma_me=1/trellis=2/8x8dct=1/cqm=0/deadzone=21, 11/fast_pskip=0/chroma_qp_offset=-2/threads=24/lookahead_threads=4/sliced_threads=0/nr=0/decimate=0/interlaced=0/bluray_compat=0/constrained_intra=0/fgo=0/bframes=8/b_pyramid=2/b_adapt=2/b_bias=0/direct=3/weightb=1/open_gop=0/weightp=2/keyint=250/keyint_min=23/scenecut=40/intra_refresh=0/rc=crf/mbtree=0/crf=16.5000/qcomp=0.70/qpmin=0: 0: 0/qpmax=69: 69: 69/qpstep=4/ip_ratio=1.30/pb_ratio=1.20/aq=3: 0.70/aq-sensitivity=10.00/aq-factor=1.00: 1.00: 1.00/aq2=0/aq3=0
    Язык : English
    Default : Да
    Forced : Нет
    DURATION : 01: 30: 56.410000000
    NUMBER_OF_FRAMES : 130823
    NUMBER_OF_BYTES : 4357835174
    _STATISTICS_WRITING_APP : mkvmerge v7.8.0 (;River Man;) 64bit built on Mar 27 2015 16: 31: 37
    _STATISTICS_WRITING_DATE_UTC : 2015-05-30 11: 31: 43
    _STATISTICS_TAGS : BPS DURATION NUMBER_OF_FRAMES NUMBER_OF_BYTES
    Аудио #1
    Идентификатор : 2
    Формат : AC-3
    Формат/Информация : Audio Coding 3
    Расширение режима : CM (complete main)
    Параметр Endianness формата : Big
    Идентификатор кодека : A_AC3
    Продолжительность : 1 ч. 30 м.
    Вид битрейта : Постоянный
    Битрейт : 384 Кбит/сек
    Каналы : 6 каналов
    Расположение каналов : Front: L C R, Side: L R, LFE
    Частота : 48, 0 КГц
    Метод сжатия : С потерями
    Размер потока : 250 Мбайт (5%)
    Язык : Russian
    Default : Да
    Forced : Нет
    Аудио #2
    Идентификатор : 3
    Формат : DTS
    Формат/Информация : Digital Theater Systems
    Режим : 16
    Параметр Endianness формата : Big
    Идентификатор кодека : A_DTS
    Продолжительность : 1 ч. 30 м.
    Вид битрейта : Постоянный
    Битрейт : 1509 Кбит/сек
    Каналы : 6 каналов
    Расположение каналов : Front: L C R, Side: L R, LFE
    Частота : 48, 0 КГц
    Битовая глубина : 24 бит
    Метод сжатия : С потерями
    Размер потока : 982 Мбайт (18%)
    Язык : English
    Default : Нет
    Forced : Нет
    Текст #1
    Идентификатор : 4
    Формат : UTF-8
    Идентификатор кодека : S_TEXT/UTF8
    Идентификатор кодека/Информация : UTF-8 Plain Text
    Язык : English
    Default : Нет
    Forced : Нет
    Текст #2
    Идентификатор : 5
    Формат : UTF-8
    Идентификатор кодека : S_TEXT/UTF8
    Идентификатор кодека/Информация : UTF-8 Plain Text
    Заголовок : SDH
    Язык : English
    Default : Нет
    Forced : Нет
    Меню
    00: 00: 00.000 : en: 00: 00: 00.000
    00: 03: 12.943 : en: 00: 03: 12.943
    00: 06: 55.624 : en: 00: 06: 55.624
    00: 10: 31.297 : en: 00: 10: 31.297
    00: 14: 11.726 : en: 00: 14: 11.726
    00: 19: 54.985 : en: 00: 19: 54.985
    00: 22: 55.541 : en: 00: 22: 55.541
    00: 27: 27.729 : en: 00: 27: 27.729
    00: 31: 29.638 : en: 00: 31: 29.638
    00: 34: 04.209 : en: 00: 34: 04.209
    00: 37: 12.188 : en: 00: 37: 12.188
    00: 41: 03.628 : en: 00: 41: 03.628
    00: 44: 28.291 : en: 00: 44: 28.291
    00: 47: 20.296 : en: 00: 47: 20.296
    00: 50: 48.712 : en: 00: 50: 48.712
    00: 55: 08.096 : en: 00: 55: 08.096
    00: 58: 40.892 : en: 00: 58: 40.892
    01: 02: 32.958 : en: 01: 02: 32.958
    01: 05: 48.987 : en: 01: 05: 48.987
    01: 08: 02.078 : en: 01: 08: 02.078
    01: 11: 47.011 : en: 01: 11: 47.011
    01: 15: 24.854 : en: 01: 15: 24.854
    01: 20: 47.259 : en: 01: 20: 47.259
    01: 24: 25.060 : en: 01: 24: 25.060

    Скриншоты



    Онлайн видео Между делом


    Размер скачиваемого торрента: 5.26 GB (5651116145 Bytes)

    Между делом/Unfinished Business (2015) BDRip 720p | iTunes
    загрузка...
    Рейтинг →
     (голосов: 1, оценка 4/5, голосовать можно 1 раз )

    Другие торренты по теме:



      Комментарии (0):

      Информация

      Информация

        Посетители, находящиеся в группе Гости, не могут оставлять комментарии в данной новости.

        ↓ Меню



        ↓ Опрос

        А Вы добавили сайт в закладки?
        Да
        Не


        Top 10 за неделю (Фильмы)