.
Авторизация | Регистрация
Хочешь лучшие торренты? Добавь свой email!
Добавить
» » Влюбленный Шекспир / Shakespeare in Love (1998) BDRip 720p от HQ-ViDEO | P торрент скачать бесплатно




    Влюбленный Шекспир / Shakespeare in Love (1998) BDRip 720p от HQ-ViDEO | P торрент скачать бесплатно

    Опубликовал: Админ | Дата: 4-06-2015, 14:46 | Просмотров: 103

    Влюбленный Шекспир/Shakespeare in Love (1998) BDRip 720p
    Релиз от HQ-ViDEO

    Детально о кино
    Русское название: Влюбленный Шекспир
    Русское название в мировом прокате: Shakespeare in Love
    Создали в: 1998
    Категория жанра: драма, мелодрама, комедия
    Главный режиссер: Джон Мэдден /John Madden/.

    Актеры
    Джозеф Файнс /Joseph Fiennes/, Гвинет Пэлтроу /Gwyneth Paltrow/, Джеффри Раш /Geoffrey Rush/, Бен Аффлек /Ben Affleck/, Том Уилкинсон /Tom Wilkinson/, Колин Фёрт /Colin Firth/, Джуди Денч /Judi Dench/ , Марк Уильямс /Mark Williams/, Саймон Кэллоу /Simon Callow/, Стив О’Доннелл /Steven O;Donnell/...

    Сюжет фильма

    1594 год. Молодой драматург Уильям Шекспир находится в творческом кризисе: муза покинула его, денег нет, хозяин театра требует от автора новую пьесу в кратчайший срок. И когда, казалось бы, у писателя не остается никакой надежды на обретение нового вдохновения, в его жизнь вторгается сама Любовь в лице обворожительной аристократки Виолы.
    Под видом молодого актера девушка нанимается в труппу театра, чтобы сыграть главную мужскую роль в пьесе Ромео и Джульетта. Виола не только преданная поклонница маэстро Шекспира, но и прекрасная актриса. Существует лишь одна загвоздка: Виола обручена с важным дворянином, который планирует отвезти будущую супругу в далекую английскую колонию...

    Награды и номинации (7 Оскаров + 6 Номинаций на Оскар):

    Оскар, 1999 год
    Победитель (7):
    - Лучший фильм
    -Лучшая женская роль (Гвинет Пэлтроу)
    -Лучшая женская роль второго плана (Джуди Денч)
    -Лучший сценарий
    -Лучшие декорации
    -Лучшие костюмы
    -Лучший саундтрек к музыкальному/комедийному фильму
    Номинации (6):
    -Лучшая мужская роль второго плана (Джеффри Раш)
    -Лучший режиссер (Джон Мэдден)
    -Лучшая работа оператора
    -Лучший звук
    -Лучший монтаж
    -Лучший грим
    Золотой глобус, 1999 год
    Победитель (3):
    -Лучший фильм (комедия или мюзикл)
    -Лучшая женская роль (комедия или мюзикл) (Гвинет Пэлтроу)
    -Лучший сценарий
    Номинации (3):
    -Лучшая мужская роль второго плана (Джеффри Раш)
    -Лучшая женская роль второго плана (Джуди Денч)
    -Лучший режиссер (Джон Мэдден)
    Премия канала MTV, 1999 год
    Победитель (1):
    -Лучший поцелуй (Гвинет Пэлтроу, Джозеф Файнс)
    Номинации (3):
    -Лучший фильм
    -Лучшая женская роль (Гвинет Пэлтроу)
    -Мужской прорыв года (Джозеф Файнс)
    Британская академия, 1999 год
    Победитель (3):
    -Лучший фильм
    -Лучшая женская роль второго плана (Джуди Денч)
    -Лучший монтаж
    Номинации (12):
    -Лучшая мужская роль (Джозеф Файнс)
    -Лучшая женская роль (Гвинет Пэлтроу)
    -Лучшая мужская роль второго плана (Джеффри Раш)
    -Лучшая мужская роль второго плана (Том Уилкинсон)
    -Лучший оригинальный сценарий
    -Лучшая работа оператора
    -Лучшие костюмы
    -Лучший звук
    -Лучший грим/прически
    -Лучшая работа художника-постановщика
    -Премия имени Дэвида Лина за достижения в режиссуре (Джон Мэдден)
    -Премия имени Энтони Эскуита за достижения в создании музыки к фильму

    Снималось в: США
    Время просмотра: 02: 03: 36
    Перевод текста: Русский профессиональный, многоголосый (Позитив-Мультимедиа/R5)
    Отдельно на Яндекс Диске:
    Русский профессиональный, многоголосый (НТВ+)
    Русский профессиональный, многоголосый (Премьер-Видео)
    Авторский, одноголосый (Ю. Живов) (отдельно)
    Оригинальная, английская дорожка (отдельно)
    Файл
    Кодек для видео: MKV, H.264
    Качество фильма: BDRip 720p (Source: Blu-ray Disc)
    Информация о видео: 4515 kbps; 0.270 bit/pixel; 1280 x 544; 2.35: 1; 23.976 fps
    Информация о звуке #1: AC3 Dolby Digital; 448.00 kbps, 6 Ch - MVO R5
    Информация о звуке #2: AC3 Dolby Digital; 448.00 kbps, 6 Ch - MVO NTV+ (отдельно/скачать с Яндекс Диск)
    Информация о звуке #3: AC3 Dolby Digital; 448.00 kbps, 6 Ch - MVO Premier (отдельно/скачать с Яндекс Диск)
    Информация о звуке #4: AC3 Dolby Digital; 448.00 kbps, 6 Ch - AVO Zhivov (отдельно/скачать с Яндекс Диск)
    Информация о звуке #5: AC3 Dolby Digital; 448.00 kbps, 6 Ch - ENG (отдельно/скачать с Яндекс Диск)
    Субтитры: Русские, Английские.
    Размер скачиваемого торрента: 4.37 GB
    SAMPLE/скачать с Яндекс Диск
    MediaInfo

    General
    Complete name : Vlyublennyi.Shekspir.1998.RUS.BDRip.720p.h264.AC3.-HQ-ViDEO.mkv
    Format : Matroska
    File size : 4.37 GiB
    Duration : 2h 3mn
    Overall bit rate : 5 063 Kbps
    Movie name : Shakespeare in Love (1998)
    Encoded date : UTC 2011-02-05 12: 03: 47
    Writing application : mkvmerge v3.3.0 (;Language;) built on Mar 24 2010 14: 59: 24
    Writing library : libebml v0.8.0 + libmatroska v0.9.0
    Video
    ID : 1
    Format : AVC
    Format/Info : Advanced Video Codec
    Format profile : High@L4.1
    Format settings, CABAC : Yes
    Format settings, ReFrames : 6 frames
    Codec ID : V_MPEG4/ISO/AVC
    Duration : 2h 3mn
    Bit rate mode : Variable
    Bit rate : 4 515 Kbps
    Width : 1 280 pixels
    Height : 544 pixels
    Display aspect ratio : 2.35: 1
    Frame rate : 23.976 fps
    Color space : YUV
    Chroma subsampling : 4: 2: 0
    Bit depth : 8 bits
    Scan type : Progressive
    Bits/(Pixel*Frame) : 0.270
    Stream size : 3.90 GiB (89%)
    Title : Encoded by GYN
    Audio
    ID : 2
    Format : AC-3
    Format/Info : Audio Coding 3
    Mode extension : CM (complete main)
    Codec ID : A_AC3
    Duration : 2h 3mn
    Bit rate mode : Constant
    Bit rate : 448 Kbps
    Channel(s) : 6 channels
    Channel positions : Front: L C R, Side: L R, LFE
    Sampling rate : 48.0 KHz
    Bit depth : 16 bits
    Stream size : 396 MiB (9%)
    Title : MVO
    Language : Russian
    Text #1
    ID : 3
    Format : UTF-8
    Codec ID : S_TEXT/UTF8
    Codec ID/Info : UTF-8 Plain Text
    Language : Russian
    Text #2
    ID : 4
    Format : UTF-8
    Codec ID : S_TEXT/UTF8
    Codec ID/Info : UTF-8 Plain Text
    Language : English





    Релиз подготовил: HQ-ViDEO
    Автор рипа: GYN

    Онлайн видео Влюбленный Шекспир


    Размер скачиваемого торрента: 4.37 GB (4694205839 Bytes)

    Влюбленный Шекспир/Shakespeare in Love (1998) BDRip 720p от HQ-ViDEO | P
    загрузка...
    Рейтинг →
     (голосов: 1, оценка 3/5, голосовать можно 1 раз )

    Другие торренты по теме:

  • Как влюбленный / Like Someone In Love (2012) DVDRip | L1
  • Влюбленный Алекс / Alex Holeh Ahavah (1986) DVDRip от ClubTorrent
  • Влюбленный скорпион / Alacrn enamorado (2013) HDRip-AVC | Лицензия
  • Влюбленный скорпион / Alacrn enamorado (2013) BDRip 720p | Лицензия
  • Влюбленный скорпион / Alacrn enamorado (2013) HDRip от InterCinema скачать через торрент бесплатно
  • Влюбленный скорпион / Alacrn enamorado (2013) HDRip от New-Team | D | Лицензия
  • Влюбленный скорпион / Alacrn enamorado (2013) HDRip от Scarabey | D | Лицензия скачать через торрент бесплатно
  • Влюбленный скорпион / Alacrn enamorado (2013) HDRip от Scarabey | D | Лицензия скачать через торрент бесплатно


    • Комментарии (0):

      Информация

      Информация

        Посетители, находящиеся в группе Гости, не могут оставлять комментарии в данной новости.

        ↓ Меню



        ↓ Опрос

        А Вы добавили сайт в закладки?
        Да
        Не


        Top 10 за месяц (Фильмы)