.
Авторизация | Регистрация
» » Тайна в его глазах / El secreto de sus ojos (2009) BDRip 720p от HQ-ViDEO | P | Лицензия скачать торрент бесплатно




    Тайна в его глазах / El secreto de sus ojos (2009) BDRip 720p от HQ-ViDEO | P | Лицензия скачать торрент бесплатно

    Опубликовал: Админ | Дата: 4-06-2015, 14:48 | Просмотров: 89


    Тайна в его глазах/El secreto de sus ojos/The Secret in Their Eyes (2009) BDRip 720p PROPER
    Релиз от HQ-ViDEO

    Детально о кино
    Русское название: Тайна в его глазах
    Русское название в мировом прокате: El secreto de sus ojos/The Secret in Their Eyes
    Создали в: 2009
    Категория жанра: триллер, драма, детектив
    Главный режиссер: Хуан Хосе Кампанелла /Juan Jos? Campanella/

    Актеры
    Соледад Вильямиль /Soledad Villamil/, Рикардо Дарин /Ricardo Dar?n/, Карла Кеведо /Carla Quevedo/, Пабло Раго /Pablo Rago/, Хавьер Годино /Javier Godino/, Барбара Палладино /B?rbara Palladino/, Руди Романо /Rudy Romano/, Алехандра Абеленда /Alejandro Abelenda/, Марио Аларкон /Mario Alarc?n/, Гильермо Франселла /Guillermo Francella/...

    Сюжет фильма

    Бенхамин Эспосито — судебный служащий, который решает написать роман об одном уголовном деле, в котором он был свидетелем и главным действующим лицом...

    Снималось в: Аргентина, Испания
    Время просмотра: 02: 09: 15
    Перевод текста: Русский профессиональный, многоголосый (Лицензия)
    Отдельно на Яндекс Диске:
    Авторский, одноголосый (Ю. Сербин) (отдельно)
    Любительский, одноголосый (В. Воронцов Docent) (отдельно)
    Оригинальная, испанская дорожка (отдельно)
    Файл
    Кодек для видео: MKV, H.264
    Качество фильма: BDRip 720p (Source: Blu-ray Disc)
    Информация о видео: 4293 kbps; 0.257 bit/pixel; 1280 x 544; 2.35: 1; 23.976 fps
    Информация о звуке #1: AC3 Dolby Digital; 448.00 kbps, 6 Ch - MVO
    Информация о звуке #2: AC3 Dolby Digital; 448.00 kbps, 6 Ch - AVO Serbin (отдельно/скачать с Яндекс Диск)
    Информация о звуке #3: AC3 Dolby Digital; 448.00 kbps, 6 Ch - AVO Docent (отдельно/скачать с Яндекс Диск)
    Информация о звуке #4: AC3 Dolby Digital; 448.00 kbps, 6 Ch - SPA (отдельно/скачать с Яндекс Диск)
    Субтитры: Русские.
    Субтитры: Русские, Английские.(Отдельно)
    Размер скачиваемого торрента: 4.37 GB
    Цитата Кто-тописал:
    PROPER: перераздача сЛицензионным профессиональным, многоголосым переводом в контейнере. Раньше в контейнере был авторский одноголосый перевод Ю. Сербина. Видеоряд остался без изменений.
    SAMPLE/скачать с Яндекс Диск
    MediaInfo

    General
    Complete name : Taina.V.Yego.Glazah.2009.PROPER.RUS.BDRip.720p.h264.AC3.-HQ-ViDEO.mkv
    Format : Matroska
    File size : 4.37 GiB
    Duration : 2h 9mn
    Overall bit rate : 4 837 Kbps
    Movie name : The Secret in Their Eyes/El secreto de sus ojos (2009)
    Encoded date : UTC 2011-01-16 13: 31: 05
    Writing application : mkvmerge v3.3.0 (;Language;) built on Mar 24 2010 14: 59: 24
    Writing library : libebml v0.8.0 + libmatroska v0.9.0
    Video
    ID : 1
    Format : AVC
    Format/Info : Advanced Video Codec
    Format profile : High@L4.1
    Format settings, CABAC : Yes
    Format settings, ReFrames : 6 frames
    Muxing mode : Container profile=Unknown@4.1
    Codec ID : V_MPEG4/ISO/AVC
    Duration : 2h 9mn
    Bit rate : 4 293 Kbps
    Width : 1 280 pixels
    Height : 544 pixels
    Display aspect ratio : 2.35: 1
    Frame rate : 23.976 fps
    Resolution : 8 bits
    Colorimetry : 4: 2: 0
    Scan type : Progressive
    Bits/(Pixel*Frame) : 0.257
    Stream size : 3.87 GiB (89%)
    Title : Encoded by GYN
    Audio
    ID : 2
    Format : AC-3
    Format/Info : Audio Coding 3
    Codec ID : A_AC3
    Duration : 2h 9mn
    Bit rate mode : Constant
    Bit rate : 448 Kbps
    Channel(s) : 6 channels
    Channel positions : Front: L C R, Surround: L R, LFE
    Sampling rate : 48.0 KHz
    Stream size : 414 MiB (9%)
    Title : AVO (Serbin)
    Language : Russian
    Text
    ID : 3
    Format : UTF-8
    Codec ID : S_TEXT/UTF8
    Codec ID/Info : UTF-8 Plain Text
    Language : Russian





    Релиз подготовил: HQ-ViDEO
    Автор рипа: GYN

    Онлайн видео Тайна в его глазах


    Размер скачиваемого торрента: 4.37 GB (4689489349 Bytes)

    Тайна в его глазах/El secreto de sus ojos (2009) BDRip 720p от HQ-ViDEO | P | Лицензия
    загрузка...
    Рейтинг →
     (голосов: 1, оценка 3/5, голосовать можно 1 раз )

    Другие торренты по теме:

  • Специальный проект. Новый год по-русски - Тайны Голубых огоньков (2012) SATRip торрент скачать бесплатно
  • Каникулы в Мексике - 2 Ток-шоу. В Новый Год без старых тайн (2012) SATRip торрент скачать бесплатно
  • Военная тайна (2012) SATRip от RiperAM торрент скачать бесплатно
  • Военная тайна (2012) SATRip от RiperAM торрент скачать бесплатно
  • Феи: Тайна зимнего леса / Secret of the Wings (2012) BDRip 1080p торрент скачать бесплатно
  • Тайны Духов: Темный Минотавр / Spirits of Mystery 3: The Dark Minotaur CE (2012) PC торрент скачать бесплатно
  • Колеман Джон - Комитет 300. Тайны мирового правительства (2012) MP3 торрент скачать бесплатно
  • Гвоздев С.А. - Ниндзя. Секреты тайного учения: Учебно-методическое пособие (2006) PDF торрент скачать бесплатно


    • Комментарии (0):

      Информация

      Информация

        Посетители, находящиеся в группе Гости, не могут оставлять комментарии в данной новости.

        ↓ Меню



        ↓ Опрос

        А Вы добавили сайт в закладки?
        Да
        Не


        Top 10 за неделю (Фильмы)