.
Авторизация | Регистрация
Хочешь лучшие торренты? Добавь свой email!
Добавить
» » Душа тишины / The Quiet (2005) HDTVRip 720p | P2 торрент скачать бесплатно




    Душа тишины / The Quiet (2005) HDTVRip 720p | P2 торрент скачать бесплатно

    Опубликовал: Админ | Дата: 5-06-2015, 00:01 | Просмотров: 171


    Детально о кино
    Русское название: Душа тишины
    Русское название в мировом прокате: The Quiet
    Создали в: 2005
    Категория жанра: драма, триллер
    Главный режиссер: Джеми Бэббит/Jamie Babbit/

    Актеры
    Элиша Катберт/Elisha Cuthbert/ , Камилла Белль/Camilla Belle/ , Иди Фалько/Edie Falco/ , Мартин Донован/Martin Donovan/ , Шон Эшмор/Shawn Ashmore/ , Кэти Миксон/Katy Mixon/ , Дэвид Галлахер/David Gallagher/ , Шеннон Мари Вудворд/Shannon Marie Woodward/ , Мария Кэш/Maria Cash/ , Джо Бэйкер/Jo Baker/ и др.

    Сюжет фильма

    Глухонемая девушка Дот вынуждена жить у своих крёстных родителей Пола и Оливии Дир и их дочери Нины, местной чирлидерши и самой популярной девушки. Все члены семьи, а также школьные друзья Нины испытывают странное очарование тихой Дот и начинают доверять ей самые тёмные свои секреты. Дот молчаливо выслушивает душеизлияния своих новых друзей, которые не подозревают, что самая тёмная тайна, которую хранит девушка — её собственная, а не их…

    Снималось в: США
    Студии: Burnt Orange Productions/Town Lake Films и др.
    Время просмотра: 01: 32: 00
    Перевод текста: Профессиональный (двухголосый, закадровый)/2 варианта/
    Рип от CtrlHD!
    Файл
    Кодек для видео: H.264
    Качество фильма: HDTVRip 720p
    Информация о видео: 1280x544 at 25.000 fps, x264@L4.1, 2 pass, ~3964 kbps avg
    Информация о звуке#1: Russian: 48 kHz, AC3, 3/2 (L, C, R, l, r) + LFE ch, ~448.00 kbps avg |Двухголосый закадровый|
    Информация о звуке#2: Russian: 48 kHz, AC3, 2/0 (L, R) ch, ~192.00 kbps avg |Двухголосый закадровый|
    Информация о звуке#3: English: 48 kHz, AC3, 3/2 (L, C, R, l, r) + LFE ch, ~448.00 kbps avg |Оригинал|
    Субтитры: English (Full)
    Скриншоты

    MediaInfo
    General
    Complete name : The.Quiet.2005.720p.HDTV.2xRus.Eng.CtrlHD.mkv
    Format : Matroska
    Format version : Version 4/Version 2
    File size : 3.31 GiB
    Duration : 1h 32mn
    Overall bit rate : 5 154 Kbps
    Movie name : The Quiet (2005)
    Encoded date : UTC 2015-06-04 15: 57: 32
    Writing application : mkvmerge v7.9.0 (;Birds;) 64bit
    Writing library : libebml v1.3.1 + libmatroska v1.4.2
    Video
    ID : 1
    Format : AVC
    Format/Info : Advanced Video Codec
    Format profile : High@L4.1
    Format settings, CABAC : Yes
    Format settings, ReFrames : 6 frames
    Format settings, GOP : N=1
    Codec ID : V_MPEG4/ISO/AVC
    Duration : 1h 32mn
    Bit rate : 3 964 Kbps
    Width : 1 280 pixels
    Height : 544 pixels
    Display aspect ratio : 2.35: 1
    Frame rate mode : Constant
    Frame rate : 25.000 fps
    Color space : YUV
    Chroma subsampling : 4: 2: 0
    Bit depth : 8 bits
    Scan type : Progressive
    Bits/(Pixel*Frame) : 0.228
    Stream size : 2.55 GiB (77%)
    Title : The Quiet (2005)
    Language : English
    Default : Yes
    Forced : No
    Audio #1
    ID : 2
    Format : AC-3
    Format/Info : Audio Coding 3
    Mode extension : CM (complete main)
    Format settings, Endianness : Big
    Codec ID : A_AC3
    Duration : 1h 32mn
    Bit rate mode : Constant
    Bit rate : 448 Kbps
    Channel(s) : 6 channels
    Channel positions : Front: L C R, Side: L R, LFE
    Sampling rate : 48.0 KHz
    Bit depth : 16 bits
    Compression mode : Lossy
    Stream size : 295 MiB (9%)
    Title : AC3 5.1 ch @ 448 kbps - DVO #1
    Language : Russian
    Default : Yes
    Forced : No
    Audio #2
    ID : 3
    Format : AC-3
    Format/Info : Audio Coding 3
    Mode extension : CM (complete main)
    Format settings, Endianness : Big
    Codec ID : A_AC3
    Duration : 1h 32mn
    Bit rate mode : Constant
    Bit rate : 192 Kbps
    Channel(s) : 2 channels
    Channel positions : Front: L R
    Sampling rate : 48.0 KHz
    Bit depth : 16 bits
    Compression mode : Lossy
    Stream size : 126 MiB (4%)
    Title : AC3 2.0 ch @ 192 kbps - DVO #2
    Language : Russian
    Default : No
    Forced : No
    Audio #3
    ID : 4
    Format : AC-3
    Format/Info : Audio Coding 3
    Mode extension : CM (complete main)
    Format settings, Endianness : Big
    Codec ID : A_AC3
    Duration : 1h 32mn
    Bit rate mode : Constant
    Bit rate : 448 Kbps
    Channel(s) : 6 channels
    Channel positions : Front: L C R, Side: L R, LFE
    Sampling rate : 48.0 KHz
    Bit depth : 16 bits
    Compression mode : Lossy
    Delay relative to video : 16ms
    Stream size : 295 MiB (9%)
    Title : AC3 5.1 ch @ 448 kbps
    Language : English
    Default : No
    Forced : No
    Text
    ID : 5
    Format : UTF-8
    Codec ID : S_TEXT/UTF8
    Codec ID/Info : UTF-8 Plain Text
    Title : Full
    Language : English
    Default : No
    Forced : No


    Онлайн видео Душа тишины


    Размер скачиваемого торрента: 3.31 GB (3556959208 Bytes)

    Душа тишины/The Quiet (2005) HDTVRip 720p | P2
    загрузка...
    Рейтинг →
     (голосов: 1, оценка 4/5, голосовать можно 1 раз )

    Другие торренты по теме:



      Комментарии (0):

      Информация

      Информация

        Посетители, находящиеся в группе Гости, не могут оставлять комментарии в данной новости.

        ↓ Меню



        ↓ Опрос

        А Вы добавили сайт в закладки?
        Да
        Не


        Top 10 за месяц (Фильмы)