.
Авторизация | Регистрация
Хочешь лучшие торренты? Добавь свой email!
Добавить
» » Одной левой (2015) WEB-DLRip-AVC | iTunes торрент скачать бесплатно




    Одной левой (2015) WEB-DLRip-AVC | iTunes торрент скачать бесплатно

    Опубликовал: Админ | Дата: 5-06-2015, 03:05 | Просмотров: 128


    Детально о кино
    Русское название в мировом прокате: Одной левой
    Создали в: 2015
    Категория жанра: Комедия
    Снималось в: Россия, Fresh Film
    Главный режиссер: Виталий Рейнгеверц

    Актеры
    Дмитрий Нагиев, Полина Гагарина, Константин Крюков, Михаил Галустян, Ян Цапник, Ольга Дроздова, Роман Ладнев

    Сюжет фильма
    Максим — обаятельный и успешный скульптор. А еще он убежденный холостяк и прожигатель жизни. У него нет отбоя от девушек и выгодных заказов. Привычный ход жизни нарушает… его собственная правая рука, которая перестает слушаться Макса. Внезапная аномалия с рукой начинает создавать проблемы в жизни плейбоя, сделав его посмешищем для друзей, клиентов и любовниц. Герой сошел с ума, или в него на самом деле вселилась душа прекрасной незнакомки?
    Файл
    Качество фильма: WEB-DLRip-AVC
    Информация о видео: MPEG-4 AVC, 2300 Кбит/с, 1024x576
    Информация о звуке: АС3, 6 ch, 384 Кбит/с
    Размер скачиваемого торрента: 1.48 ГБ
    Время просмотра: 01: 19: 00
    Язык: Русский iTunes
    MI
    Общее
    Уникальный идентификатор : 214094899823151559422374148054685671776 (0xA1112D87A4A19A74AC1DE38602296160)
    Полное имя : C: dn0y.Lev0y.2015.O.WEB-DLRip(AVC).mkv
    Формат : Matroska
    Версия формата : Version 2
    Размер файла : 1, 48 Гбайт
    Продолжительность : 1 ч. 19 м.
    Общий поток : 2681 Кбит/сек
    Название фильма : by_bog3417
    Дата кодирования : UTC 2015-06-04 21: 41: 10
    Программа кодирования : mkvmerge v7.9.0 (;Birds;) 64bit
    Библиотека кодирования : libebml v1.3.1 + libmatroska v1.4.2
    Видео
    Идентификатор : 1
    Формат : AVC
    Формат/Информация : Advanced Video Codec
    Профиль формата : High@L4.1
    Параметр CABAC формата : Да
    Параметр ReFrames формата : 12 кадров
    Идентификатор кодека : V_MPEG4/ISO/AVC
    Продолжительность : 1 ч. 19 м.
    Битрейт : 2300 Кбит/сек
    Ширина : 1024 пикселя
    Высота : 576 пикселей
    Соотношение сторон : 16: 9
    Режим частоты кадров : Постоянный
    Частота кадров : 25, 000 кадров/сек
    Цветовое пространство : YUV
    Субдискретизация насыщенности : 4: 2: 0
    Битовая глубина : 8 бит
    Тип развёртки : Прогрессивная
    Бит/(Пиксели*Кадры) : 0.156
    Размер потока : 1, 24 Гбайт (84%)
    Заголовок : by_bog3417
    Библиотека кодирования : x264 core 146 r2538 121396c
    Настройки программы : cabac=1/ref=12/deblock=1: -3: -3/analyse=0x3: 0x33/me=umh/subme=11/psy=1/psy_rd=1.03: 0.15/mixed_ref=1/me_range=32/chroma_me=1/trellis=2/8x8dct=1/cqm=0/deadzone=21, 11/fast_pskip=0/chroma_qp_offset=-3/threads=12/lookahead_threads=2/sliced_threads=0/nr=0/decimate=0/interlaced=0/bluray_compat=0/constrained_intra=0/bframes=9/b_pyramid=2/b_adapt=2/b_bias=0/direct=3/weightb=1/open_gop=1/weightp=2/keyint=250/keyint_min=25/scenecut=40/intra_refresh=0/rc=2pass/mbtree=0/bitrate=2300/ratetol=1.0/qcomp=0.60/qpmin=0/qpmax=69/qpstep=4/cplxblur=20.0/qblur=0.5/ip_ratio=1.40/pb_ratio=1.30/aq=1: 1.00
    Язык : English
    Default : Да
    Forced : Нет
    Аудио
    Идентификатор : 2
    Формат : AC-3
    Формат/Информация : Audio Coding 3
    Расширение режима : CM (complete main)
    Параметр Endianness формата : Big
    Идентификатор кодека : A_AC3
    Продолжительность : 1 ч. 19 м.
    Вид битрейта : Постоянный
    Битрейт : 384 Кбит/сек
    Каналы : 6 каналов
    Расположение каналов : Front: L C R, Side: L R, LFE
    Частота : 48, 0 КГц
    Метод сжатия : С потерями
    Размер потока : 217 Мбайт (14%)
    Язык : Russian
    Default : Да
    Forced : Нет
    Меню
    00: 00: 00.000 : en: Р“Рава 1
    00: 02: 07.000 : en: Р“Рава 2
    00: 06: 31.000 : en: Р“Рава 3
    00: 11: 00.000 : en: Р“Рава 4
    00: 14: 53.000 : en: Р“Рава 5
    00: 20: 32.000 : en: Р“Рава 6
    00: 24: 57.000 : en: Р“Рава 7
    00: 28: 50.000 : en: Р“Рава 8
    00: 32: 40.000 : en: Р“Рава 9
    00: 37: 31.000 : en: Р“Рава 10
    00: 41: 04.000 : en: Р“Рава 11
    00: 45: 41.000 : en: Р“Рава 12
    00: 50: 57.000 : en: Р“Рава 13
    00: 54: 49.000 : en: Р“Рава 14
    00: 58: 27.000 : en: Р“Рава 15
    01: 04: 18.000 : en: Р“Рава 16
    01: 09: 21.000 : en: Р“Рава 17

    Скриншоты




    Онлайн видео Одной левой (2015) WEB-DLRip-AVC


    Размер скачиваемого торрента: 1.48 GB (1591659074 Bytes)

    Одной левой (2015) WEB-DLRip-AVC | iTunes
    загрузка...
    Рейтинг →
     (голосов: 1, оценка 5/5, голосовать можно 1 раз )

    Другие торренты по теме:

  • Одной левой (2015) HDRip
  • Одной левой (2015) WEB-DL 1080p | iTunes
  • Одной левой (2015) WEB-DL 720p | iTunes
  • Одной левой (2015) WEB-DLRip | iTunes
  • Одной левой (2015) WEB-DLRip | iTunes
  • Одной левой (2015) WEB-DLRip от Scarabey | iTunes
  • Одной левой (2015) WEB-DLRip от Scarabey | iTunes


    • Комментарии (0):

      Информация

      Информация

        Посетители, находящиеся в группе Гости, не могут оставлять комментарии в данной новости.

        ↓ Меню



        ↓ Опрос

        А Вы добавили сайт в закладки?
        Да
        Не


        Top 10 за месяц (Фильмы)