.
Авторизация | Регистрация




Надой (2015) WEB-DLRip-AVC скачать торрент бесплатно

Опубликовал: Админ | Дата: 5-06-2015, 09:00 | Просмотров: 138


Детально о кино
Русское название: Надой
Создали в: 2015
Категория жанра: комедия, авторский фильм
Главный режиссер: Дмитрий Парёнкин

Актеры
Алексей Нелаев, Валерий Дюльдин, Андрей Кузнецов, Павел Мызников, Анастасия Бажутина, Дмитрий Парёнкин, Алексей Драгнев, Тимур Курманов, Григорий Люков, Илья Жованик, Дмитрий Баклажанский, Анна Муравьёва, Сергей Павлов, Александр Галансков

Сюжет фильма

Деревенский гений Кузьма участвует в конкурсе немецкой молочной компании и разрабатывает чудо-агрегат, способный увеличить надой в десятки раз. Верные друзья ему в этом помогают, а злодей (в лице Главы администрации) строит козни, пытаясь разработку присвоить себе. Мистические явления, лабиринты без выхода и секретная формула Кузьмы. Потрясающая летняя, деревенская комедия, обязательно придётся по вкусу всем любителям старого доброго советского кино!
Снималось в: Россия
Время просмотра: 00: 58: 00
Перевод текста: не требуется
Файл
Кодек для видео: MPEG-4 AVC (MKV)
Качество фильма: WEB-DLRip-AVC
Информация о видео: AVC, 1024x432, 2000 Kbps
Информация о звуке: AC3, 2 ch, 192 Kbps
Субтитры: нет
Семпл
Скриншоты
MediaInfo
General
Unique ID : 251123236017552036398909523704106886047 (0xBCEC937496E13C4BC6F12CFE8E0EA39F)
Complete name : D: ДИСК?2.ФИЛЬМЫ СНГНадой (2015)Nadoi.2015.WEB-DLRip-AVC.mkv
Format : Matroska
Format version : Version 2
File size : 912 MiB
Duration : 58mn 6s
Overall bit rate : 2 195 Kbps
Writing application : XviD4PSP 6.0/54.29.105
Writing library : XviD4PSP 6.0/54.29.105
Video
ID : 1
Format : AVC
Format/Info : Advanced Video Codec
Format profile : High@L4.1
Format settings, CABAC : Yes
Format settings, ReFrames : 7 frames
Codec ID : V_MPEG4/ISO/AVC
Duration : 58mn 6s
Bit rate : 2 000 Kbps
Width : 1 024 pixels
Height : 432 pixels
Display aspect ratio : 2.40: 1
Frame rate mode : Constant
Frame rate : 24.000 fps
Color space : YUV
Chroma subsampling : 4: 2: 0
Bit depth : 8 bits
Scan type : Progressive
Bits/(Pixel*Frame) : 0.188
Stream size : 814 MiB (89%)
Writing library : x264 core 128 r2216M 198a7ea
Encoding settings : cabac=1/ref=8/deblock=1: 0: 0/analyse=0x3: 0x133/me=umh/subme=7/psy=1/psy_rd=1.00: 0.20/mixed_ref=1/me_range=24/chroma_me=1/trellis=1/8x8dct=1/cqm=0/deadzone=21, 11/fast_pskip=1/chroma_qp_offset=-3/threads=5/lookahead_threads=1/sliced_threads=0/nr=0/decimate=1/interlaced=0/bluray_compat=0/constrained_intra=0/bframes=8/b_pyramid=1/b_adapt=2/b_bias=8/direct=3/weightb=1/open_gop=0/weightp=2/keyint=240/keyint_min=24/scenecut=40/intra_refresh=0/rc_lookahead=40/rc=2pass/mbtree=1/bitrate=2000/ratetol=1.0/qcomp=0.60/qpmin=0/qpmax=69/qpstep=4/cplxblur=20.0/qblur=0.5/ip_ratio=1.40/aq=1: 1.00
Default : Yes
Forced : No
Audio
ID : 2
Format : AC-3
Format/Info : Audio Coding 3
Mode extension : CM (complete main)
Format settings, Endianness : Big
Codec ID : A_AC3
Duration : 58mn 6s
Bit rate mode : Constant
Bit rate : 192 Kbps
Channel(s) : 2 channels
Channel positions : Front: L R
Sampling rate : 48.0 KHz
Bit depth : 16 bits
Compression mode : Lossy
Stream size : 79.8 MiB (9%)
Language : Russian
Default : Yes
Forced : No


Онлайн видео Надой (2015) WEB


Размер скачиваемого торрента: 912.37 MB (956691221 Bytes)

Надой (2015) WEB-DLRip-AVC
загрузка...
Рейтинг →
 (голосов: 1, оценка 4/5, голосовать можно 1 раз )

Другие торренты по теме:

  • Китай: власть над миром Фильм Леонида Млечина (2012) IPTVRip торрент скачать бесплатно


    • Комментарии (0):

      Информация

      Информация

        Посетители, находящиеся в группе Гости, не могут оставлять комментарии в данной новости.

        ↓ Меню



        ↓ Опрос

        А Вы добавили сайт в закладки?
        Да
        Не


        Top 10 за неделю (Фильмы)