.
Авторизация | Регистрация
Хочешь лучшие торренты? Добавь свой email!
Добавить
» » Имя ему Смерть / Pale Rider (1985) BDRip 720p от HQ-ViDEO | D, P торрент скачать бесплатно




    Имя ему Смерть / Pale Rider (1985) BDRip 720p от HQ-ViDEO | D, P торрент скачать бесплатно

    Опубликовал: Админ | Дата: 5-06-2015, 14:20 | Просмотров: 84


    Имя ему Смерть/Pale Rider (1985) BDRip 720p
    Релиз от HQ-ViDEO

    Детально о кино
    Русское название: Имя ему Смерть
    Русское название в мировом прокате: Pale Rider
    Создали в: 1985
    Категория жанра: мелодрама, вестерн
    Главный режиссер: Клинт Иствуд /Clint Eastwood/

    Актеры
    Клинт Иствуд /Clint Eastwood/, Майкл Мориарти /Michael Moriarty/, Кэрри Снодгресс /Carrie Snodgress/, Крис Пенн /Chris Penn/, Ричард А. Дайсарт /Richard Dysart/, Сидни Пенни /Sydney Penny/, Ричард Кил /Richard Kiel/, Даг МакГрат /Doug McGrath/, Джон Расселл /John Russell/, Чарльз Хэллахан /Charles Hallahan/...

    Сюжет фильма

    Северная Калифорния. Лето 1850 года. Босс золотодобывающей компании предлагает независимым старателям уйти добровольно или их выгонят силой. У запуганных людей нет выбора.
    Но однажды в их лагерь приезжает незнакомец, старатели называют его Проповедник. Он становится для босса всадником мести, и ад следует за ним.

    Снималось в: США
    Время просмотра: 01: 55: 51
    Перевод текста: Русский дублированный +Русский профессиональный, многоголосый + Оригинальная, английская дорожка (отдельно)
    Файл
    Кодек для видео: MKV, H.264
    Качество фильма: BDRip 720p (Source: Blu-ray Disc)
    Информация о видео: 4842 kbps; 0.294 bit/pixel; 1280 x 536; 2.35: 1; 23.976 fps
    Информация о звуке #1: AC3 Dolby Digital; 256.00 kbps, 2 Ch - DUB
    Информация о звуке #2: AC3 Dolby Digital; 192.00 kbps, 2 Ch - MVO
    Информация о звуке #3: AC3 Dolby Digital; 448.00 kbps, 6 Ch - ENG (отдельно/скачать с Яндекс Диск)
    Субтитры: Английские (полные (2 вида), SDH (2 вида)).(отдельно)
    Размер скачиваемого торрента: 4.37 GB
    SAMPLE/скачать с Яндекс Диск
    MediaInfo

    General
    Complete name : Imya.Yemu.Smert.1985.DUALRUS.BDRip.720p.h264.AC3.-HQ-ViDEO.mkv
    Format : Matroska
    File size : 4.37 GiB
    Duration : 1h 55mn
    Overall bit rate : 5 397 Kbps
    Movie name : Pale Rider (1985)
    Encoded date : UTC 2010-10-02 12: 32: 18
    Writing application : mkvmerge v3.3.0 (;Language;) built on Mar 24 2010 14: 59: 24
    Writing library : libebml v0.8.0 + libmatroska v0.9.0
    Video
    ID : 1
    Format : AVC
    Format/Info : Advanced Video Codec
    Format profile : High@L4.1
    Format settings, CABAC : Yes
    Format settings, ReFrames : 6 frames
    Muxing mode : Container profile=Unknown@4.1
    Codec ID : V_MPEG4/ISO/AVC
    Duration : 1h 55mn
    Bit rate : 4 842 Kbps
    Width : 1 280 pixels
    Height : 536 pixels
    Display aspect ratio : 2.35: 1
    Frame rate : 23.976 fps
    Resolution : 8 bits
    Colorimetry : 4: 2: 0
    Scan type : Progressive
    Bits/(Pixel*Frame) : 0.294
    Stream size : 3.91 GiB (90%)
    Title : Encoded by GYN
    Audio #1
    ID : 2
    Format : AC-3
    Format/Info : Audio Coding 3
    Codec ID : A_AC3
    Duration : 1h 55mn
    Bit rate mode : Constant
    Bit rate : 256 Kbps
    Channel(s) : 2 channels
    Channel positions : L R
    Sampling rate : 48.0 KHz
    Stream size : 212 MiB (5%)
    Title : DUB
    Language : Russian
    Audio #2
    ID : 3
    Format : AC-3
    Format/Info : Audio Coding 3
    Codec ID : A_AC3
    Duration : 1h 55mn
    Bit rate mode : Constant
    Bit rate : 192 Kbps
    Channel(s) : 2 channels
    Channel positions : L R
    Sampling rate : 48.0 KHz
    Stream size : 159 MiB (4%)
    Title : MVO
    Language : Russian





    Релиз подготовил: HQ-ViDEO
    Автор рипа: GYN

    Онлайн видео Имя ему Смерть


    Размер скачиваемого торрента: 4.37 GB (4689969029 Bytes)

    Имя ему Смерть/Pale Rider (1985) BDRip 720p от HQ-ViDEO | D, P
    загрузка...
    Рейтинг →
     (голосов: 1, оценка 3/5, голосовать можно 1 раз )

    Другие торренты по теме:

  • Имя ему Смерть / Pale Rider (1985) HDRip | D
  • Имя ему Смерть / Pale Rider (1985) BDRip 1080p скачать через торрент бесплатно


    • Комментарии (0):

      Информация

      Информация

        Посетители, находящиеся в группе Гости, не могут оставлять комментарии в данной новости.

        ↓ Меню



        ↓ Опрос

        А Вы добавили сайт в закладки?
        Да
        Не


        Top 10 за месяц (Фильмы)