.
Авторизация | Регистрация
Хочешь лучшие торренты? Добавь свой email!
Добавить
» » Последние рыцари / Last Knights (2015) DVD5 | Лицензия торрент скачать бесплатно




    Последние рыцари / Last Knights (2015) DVD5 | Лицензия торрент скачать бесплатно

    Опубликовал: Админ | Дата: 6-06-2015, 05:28 | Просмотров: 92


    Детально о кино
    Русское название: Последние рыцари
    Русское название в мировом прокате: Last Knights
    Создали в: 2015
    Категория жанра: драма, боевик, приключения
    Главный режиссер: Казуаки Кирия

    Актеры
    Клайв Оуэн, Морган Фриман, Клифф Кёртис, Аксель Хенни, Цуёси Ихара, Шоре Агдашлу, Пейман Моаади, Ан Сон Ги, Пак Си Ен, Дэниэл Адегбойега

    Сюжет фильма

    Фильм рассказывает о падшем воине, который восстает против коррумпированного правителя-садиста, чтобы отомстить за своего обесчещенного господина.

    Снималось в: Чехия, Южная Корея
    Киностудия: Czech Anglo Productions, Luka Productions
    Время просмотра: 110 мин./01: 50
    Перевод текста: полное дублирование
    Оригинальная дорожка: отсутствует
    Файл
    Кодек для видео: MPEG2
    Качество фильма: DVD5 Лизард
    Информация о видео: PAL 16: 9 (720x576@1024x576) VBR 3789 Kbps, 25.000 fps
    Информация о звуке: Dolby AC3, 6 ch, 48.0 KHz, 448 Kbps
    Субтитры: отсутствуют
    MediaInfo
    Общее
    Полное имя : D: Poslednie.rycari.2015.DVD5VIDEO_TSVTS_04_1.VOB
    Формат : MPEG-PS
    Размер файла : 1024 Мбайт
    Продолжительность : 33 м.
    Режим общего битрейта : Переменный
    Общий поток : 4323 Кбит/сек
    Видео
    Идентификатор : 224 (0xE0)
    Формат : MPEG Video
    Версия формата : Version 2
    Профиль формата : Main@Main
    Параметр BVOP формата : Да
    Параметр матрицы формата : Выборочная
    Параметр GOP формата : Variable
    Структура изображения : Frame
    Продолжительность : 33 м.
    Вид битрейта : Переменный
    Битрейт : 3789 Кбит/сек
    Максимальный битрейт : 8000 Кбит/сек
    Ширина : 720 пикселей
    Высота : 576 пикселей
    Соотношение сторон : 16: 9
    Частота кадров : 25, 000 кадров/сек
    Стандарт вещания : PAL
    Цветовое пространство : YUV
    Субдискретизация насыщенности : 4: 2: 0
    Битовая глубина : 8 бит
    Тип развёртки : Чересстрочная
    Порядок развёртки : Верхнее поле первое
    Метод сжатия : С потерями
    Бит/(Пиксели*Кадры) : 0.365
    Временной код первого кадра : 00: 00: 00: 00
    Оригинал временного кода : Group of pictures t_head
    GOP, открыто/закрыто : Открыто
    GOP, открыто/закрыто на первом кадре : Закрыто
    Размер потока : 897 Мбайт (88%)
    Аудио
    Идентификатор : 189 (0xBD)-128 (0x80)
    Формат : AC-3
    Формат/Информация : Audio Coding 3
    Расширение режима : CM (complete main)
    Параметр Endianness формата : Big
    Режим смешивания : DVD-Video
    Продолжительность : 33 м.
    Вид битрейта : Постоянный
    Битрейт : 448 Кбит/сек
    Каналы : 6 каналов
    Расположение каналов : Front: L C R, Side: L R, LFE
    Частота : 48, 0 КГц
    Метод сжатия : С потерями
    Размер потока : 106 Мбайт (10%)
    Меню
    Скриншоты


    Залил: carisha

    Онлайн видео Последние рыцари


    Размер скачиваемого торрента: 3.51 GB (3773327360 Bytes)

    Последние рыцари/Last Knights (2015) DVD5 | Лицензия
    загрузка...
    Рейтинг →
     (голосов: 1, оценка 4/5, голосовать можно 1 раз )

    Другие торренты по теме:

  • Последние рыцари / Last Knights (2015) WEB-DLRip | Чистый звук
  • Последние рыцари / Last Knights (2015) WEB-DLRip-AVC от ExKinoRay | Чистый звук
  • Последние рыцари / Last Knights (2015) BDRip 1080p | Чистый звук
  • Последние рыцари / Last Knights (2015) HDRip от -=HD-NET=- | КПК | Чистый звук
  • Последние рыцари / Last Knights (2015) HDRip-AVC от ExKinoRay | Чистый звук
  • Последние рыцари / Last Knights (2015) HDRip от Twi7ter | D | Лицензия
  • Последние рыцари / Last Knights (2015) HDRip | Лицензия
  • Последние рыцари / Last Knights (2015) BDRip 720p | Лицензия


    • Комментарии (0):

      Информация

      Информация

        Посетители, находящиеся в группе Гости, не могут оставлять комментарии в данной новости.

        ↓ Меню



        ↓ Опрос

        А Вы добавили сайт в закладки?
        Да
        Не


        Top 10 за месяц (Фильмы)