.
Авторизация | Регистрация
Хочешь лучшие торренты? Добавь свой email!
Добавить




Алмазы (1947) SATRip от New-Team торрент скачать бесплатно

Опубликовал: Админ | Дата: 6-06-2015, 15:01 | Просмотров: 164


Снималось в: СССР
Создали в: Свердловская киностудия
Категория жанра: драма
Создали в: 1947
Время просмотра: 01: 19: 32
Перевод текста: Не требуется
Субтитры подготовлены: нет
Оригинальная аудиодорожка: русский
Главный режиссер: Александр Оленин, Иван Правов

Актеры

Василий Ванин, Всеволод Санаев, Нина Алисова, Л. Седова, Евгений Агуров, Иоаким Максимов-Кошкинский, Анна Кожевникова, Лидия Старокольцева, В. Белов, С. Прищепа, Т. Залевская, И. Лепинская...
Описание:
Молодой геолог Сергей Нестеров, вернувшись после службы в армии, намерен продолжить прерванную Великой Отечественной работу по изысканию промышленных залежей уральских алмазов. Своим рвением Сергей удивляет начальника, ставит в неловкое положение свою невесту Варвару и дает прекрасный повод другим геологам поиздеваться над собой. Но Сергей твердо идет к цели и, в конце концов, вместе с Христиной находит богатейшие россыпи алмазов.



Источник: DVB
Качество фильма видео: SATRip
Тип видео видео: AVI
Информация о видео: 672x496 (4: 3), 25 fps, XviD ~ 1186 kbps avg, 0.142 bit/pixel
Информация о звуке: 48 kHz, MP3 2.0, 128 kbps
Раздача от:
MediaInfo

Общее
Полное имя : Almazy.1947.SATRip_New-team_by_AVP_Studio.avi
Формат : AVI
Формат/Информация : Audio Video Interleave
Размер файла : 753 Мбайт
Продолжительность : 1 ч. 19 м.
Режим общего битрейта : Переменный
Общий поток : 1323 Кбит/сек
Программа кодирования : VirtualDubModRus 1.5.10.2 (build 2542/release)
Библиотека кодирования : VirtualDubMod build 2542/release
Видео
Идентификатор : 0
Формат : MPEG-4 Visual
Профиль формата : Advanced Simple@L5
Параметр BVOP формата : 1
Параметр QPel формата : Нет
Параметр GMC формата : Без точки перехода
Параметр матрицы формата : Выборочная
Идентификатор кодека : XVID
Идентификатор кодека/Подсказка : XviD
Продолжительность : 1 ч. 19 м.
Битрейт : 1186 Кбит/сек
Ширина : 672 пикселя
Высота : 496 пикселей
Соотношение сторон : 4: 3
Частота кадров : 25, 000 кадров/сек
Цветовое пространство : YUV
Субдискретизация насыщенности : 4: 2: 0
Битовая глубина : 8 бит
Тип развёртки : Прогрессивная
Метод сжатия : С потерями
Бит/(Пиксели*Кадры) : 0.142
Размер потока : 675 Мбайт (90%)
Библиотека кодирования : XviD 73
Аудио
Идентификатор : 1
Формат : MPEG Audio
Версия формата : Version 1
Профиль формата : Layer 3
Режим : Joint stereo
Расширение режима : MS Stereo
Идентификатор кодека : 55
Идентификатор кодека/Подсказка : MP3
Продолжительность : 1 ч. 19 м.
Вид битрейта : Переменный
Битрейт : 128 Кбит/сек
Каналы : 2 канала
Частота : 48, 0 КГц
Метод сжатия : С потерями
Размер потока : 72, 8 Мбайт (10%)
Выравнивание : Разделение по промежуткам
Продолжительность промежутка : 40 мс. (1, 00 видеокадр)
Время предзагрузки промежутка : 500 мс

Скриншоты



Залил: AVPStudio

Онлайн видео Алмазы (1947) SATRip от New


Размер скачиваемого торрента: 752.90 MB (789471232 Bytes)

Алмазы (1947) SATRip от New-Team
загрузка...
Рейтинг →
 (голосов: 1, оценка 5/5, голосовать можно 1 раз )

Другие торренты по теме:

  • Проси только алмазы / Just Ask for Diamond (1988) DVDRip | Юрий Сербин
  • Алмазы на десерт (2006) DVDRip от MediaClub
  • Алмазы Килиманджаро / Сокровища белой богини / Diamonds of Kilimandjaro / El tesoro de la diosa blanca (1983) DVDRip-AVC | A1 скачать через торрент бесплатно
  • Алмазы ночи / Dmanty noci (1964) DVD-5 | Sub
  • Алмазы ночи / Dmanty noci (1964) DVDRip | Sub
  • Алмазы (1947) SATRip-AVC от New-Team
  • Алмазы на десерт (1-3 серии из 3) / 2006 / РУ / DVD-5
  • Алмазы Сталина (2016)


    • Комментарии (0):

      Информация

      Информация

        Посетители, находящиеся в группе Гости, не могут оставлять комментарии в данной новости.

        ↓ Меню



        ↓ Опрос

        А Вы добавили сайт в закладки?
        Да
        Не


        Top 10 за месяц (Фильмы)