.
Авторизация | Регистрация
Хочешь лучшие торренты? Добавь свой email!
Добавить
» » Робот по имени Чаппи / Chappie (2015) BDRip-AVC | Лицензия торрент скачать бесплатно




    Робот по имени Чаппи / Chappie (2015) BDRip-AVC | Лицензия торрент скачать бесплатно

    Опубликовал: Админ | Дата: 6-06-2015, 15:04 | Просмотров: 125


    Детально о кино
    Русское название: Робот по имени Чаппи
    Русское название в мировом прокате: Chappie
    Создали в: 2015
    Категория жанра: Фантастика, боевик, триллер
    Снималось в: Мексика, США, Columbia Pictures
    Главный режиссер: Нил Бломкамп

    Актеры
    Шарлто Копли, Дев Патель, Ниндзя, Йоланди Фиссер, Хосе Пабло Кантилльо, Хью Джекман, Сигурни Уивер, Брэндон Оре, Джонни Селема, Андерсон Купер, Морис Карпеде, Джейсон Коуп, Кевин Отто, Крис Шилдс, Билл Мэрчент, Роберт Хоббс, Марк К. Куслу, Шерлдон Марема, Шахид Хаджи, Дэвид Давадосс

    Сюжет фильма
    Чаппи – высокоинтеллектуальный робот, созданный талантливейшим ученым. В отличие от тысяч аналогов, Чаппи может не только мыслить и развиваться, но и чувствовать, страдать, надеяться и мечтать. Одним словом, это – человек, только с большими интеллектуальными и физическими способностями и большим объемом памяти. Сейчас Чаппи – эдакий ребенок, который учится, шутит, играет, познает мир. Ученый, его создавший, относится к Чаппи, как к родному сыну и радуется каждому его достижению. Но однажды Чаппи похищают люди недобрые, прознавшие об уникальных способностях робота и решившие воспользоваться этим в своих подлых целях. Мафиозники обучают Чаппи на свой манер, и к большой печали, первоначально Чаппи верит людям, перенимая иной образ поведения и общения, нежели ему внушался прежде. Карусель событий разгоняется все быстрее: теперь военные получили информацию, что у мафии есть высокоинтеллектуальный робот и объявили охоту на него.
    Файл
    Качество фильма: BDRip(исх.Chappie 2015 1080p BluRay AVC DTS-HD MA 7.1-HDAccess)
    Информация о видео: MPEG-4 AVC, 1693 Кбит/с, 720x304
    Информация о звуке: Русский, английский (AC3, 6 ch, 448 Кбит/с)
    Размер скачиваемого торрента: 2.17 ГБ
    Время просмотра: 02: 00: 19
    Перевод текста: Дублированный лицензия
    Субтитры: Русские, английские, украинские
    Семпл
    MI
    Общее
    Уникальный идентификатор : 243527395402960217979212566433753074956 (0xB735AB9956D0024BA76986C540120D0C)
    Полное имя : C: VideoChappie.2015.BDRip.(H.264).by_bog3417.mkv
    Формат : Matroska
    Версия формата : Version 2
    Размер файла : 2, 17 Гбайт
    Продолжительность : 2 ч. 0 м.
    Общий поток : 2587 Кбит/сек
    Название фильма : Chappie.2015.AVC.by.bog3417
    Дата кодирования : UTC 2015-06-06 06: 54: 17
    Программа кодирования : mkvmerge v7.9.0 (;Birds;) 64bit
    Библиотека кодирования : libebml v1.3.1 + libmatroska v1.4.2
    DURATION : 01: 52: 14.811000000
    NUMBER_OF_FRAMES : 1607
    NUMBER_OF_BYTES : 51850
    _STATISTICS_WRITING_APP : mkvmerge v7.9.0 (;Birds;) 64bit
    _STATISTICS_WRITING_DATE_UTC : 2015-05-29 14: 26: 49
    _STATISTICS_TAGS : BPS DURATION NUMBER_OF_FRAMES NUMBER_OF_BYTES
    Видео
    Идентификатор : 1
    Формат : AVC
    Формат/Информация : Advanced Video Codec
    Профиль формата : High@L4.1
    Параметр CABAC формата : Да
    Параметр ReFrames формата : 12 кадров
    Идентификатор кодека : V_MPEG4/ISO/AVC
    Продолжительность : 2 ч. 0 м.
    Битрейт : 1693 Кбит/сек
    Ширина : 720 пикселей
    Высота : 304 пикселя
    Соотношение сторон : 2, 35: 1
    Режим частоты кадров : Постоянный
    Частота кадров : 23, 976 кадра/сек
    Цветовое пространство : YUV
    Субдискретизация насыщенности : 4: 2: 0
    Битовая глубина : 8 бит
    Тип развёртки : Прогрессивная
    Бит/(Пиксели*Кадры) : 0.323
    Размер потока : 1, 38 Гбайт (63%)
    Библиотека кодирования : x264 core 146 r2538 121396c
    Настройки программы : cabac=1/ref=12/deblock=1: -3: -3/analyse=0x3: 0x33/me=umh/subme=11/psy=1/psy_rd=1.05: 0.15/mixed_ref=1/me_range=48/chroma_me=1/trellis=2/8x8dct=1/cqm=0/deadzone=21, 11/fast_pskip=0/chroma_qp_offset=-3/threads=12/lookahead_threads=2/sliced_threads=0/nr=0/decimate=0/interlaced=0/bluray_compat=0/constrained_intra=0/bframes=10/b_pyramid=2/b_adapt=2/b_bias=0/direct=3/weightb=1/open_gop=1/weightp=2/keyint=240/keyint_min=23/scenecut=40/intra_refresh=0/rc=2pass/mbtree=0/bitrate=1693/ratetol=1.0/qcomp=0.60/qpmin=0/qpmax=69/qpstep=4/cplxblur=20.0/qblur=0.5/ip_ratio=1.40/pb_ratio=1.30/aq=3: 0.90
    Язык : English
    Default : Да
    Forced : Нет
    Аудио #1
    Идентификатор : 2
    Формат : AC-3
    Формат/Информация : Audio Coding 3
    Расширение режима : CM (complete main)
    Параметр Endianness формата : Big
    Идентификатор кодека : A_AC3
    Продолжительность : 2 ч. 0 м.
    Вид битрейта : Постоянный
    Битрейт : 448 Кбит/сек
    Каналы : 6 каналов
    Расположение каналов : Front: L C R, Side: L R, LFE
    Частота : 48, 0 КГц
    Метод сжатия : С потерями
    Размер потока : 386 Мбайт (17%)
    Язык : Russian
    Default : Да
    Forced : Нет
    Аудио #2
    Идентификатор : 3
    Формат : AC-3
    Формат/Информация : Audio Coding 3
    Расширение режима : CM (complete main)
    Параметр Endianness формата : Big
    Идентификатор кодека : A_AC3
    Продолжительность : 2 ч. 0 м.
    Вид битрейта : Постоянный
    Битрейт : 448 Кбит/сек
    Каналы : 6 каналов
    Расположение каналов : Front: L C R, Side: L R, LFE
    Частота : 48, 0 КГц
    Метод сжатия : С потерями
    Размер потока : 386 Мбайт (17%)
    Язык : English
    Default : Нет
    Forced : Нет
    Текст #1
    Идентификатор : 4
    Формат : UTF-8
    Идентификатор кодека : S_TEXT/UTF8
    Идентификатор кодека/Информация : UTF-8 Plain Text
    Заголовок : Forced
    Язык : Russian
    Default : Да
    Forced : Нет
    Текст #2
    Идентификатор : 5
    Формат : UTF-8
    Идентификатор кодека : S_TEXT/UTF8
    Идентификатор кодека/Информация : UTF-8 Plain Text
    Заголовок : Full
    Язык : Russian
    Default : Нет
    Forced : Нет
    Текст #3
    Идентификатор : 6
    Формат : UTF-8
    Идентификатор кодека : S_TEXT/UTF8
    Идентификатор кодека/Информация : UTF-8 Plain Text
    Заголовок : Full
    Язык : Ukrainian
    Default : Нет
    Forced : Нет
    Текст #4
    Идентификатор : 7
    Формат : UTF-8
    Идентификатор кодека : S_TEXT/UTF8
    Идентификатор кодека/Информация : UTF-8 Plain Text
    Заголовок : English-Forced
    Язык : English
    Default : Нет
    Forced : Нет
    Текст #5
    Идентификатор : 8
    Формат : UTF-8
    Идентификатор кодека : S_TEXT/UTF8
    Идентификатор кодека/Информация : UTF-8 Plain Text
    Заголовок : Full
    Язык : English
    Default : Нет
    Forced : Нет
    Меню
    00: 00: 00.000 : en: 00: 00: 00.000
    00: 03: 37.008 : en: 00: 03: 37.008
    00: 09: 55.261 : en: 00: 09: 55.261
    00: 13: 50.496 : en: 00: 13: 50.496
    00: 21: 53.646 : en: 00: 21: 53.646
    00: 31: 17.125 : en: 00: 31: 17.125
    00: 37: 19.320 : en: 00: 37: 19.320
    00: 46: 58.733 : en: 00: 46: 58.733
    00: 54: 36.690 : en: 00: 54: 36.690
    01: 06: 12.927 : en: 01: 06: 12.927
    01: 09: 57.652 : en: 01: 09: 57.652
    01: 16: 48.395 : en: 01: 16: 48.395
    01: 24: 59.553 : en: 01: 24: 59.553
    01: 31: 35.198 : en: 01: 31: 35.198
    01: 42: 36.942 : en: 01: 42: 36.942
    01: 50: 03.597 : en: 01: 50: 03.597

    Скриншоты





    Релиз подготовил:

    Онлайн видео Робот по имени Чаппи


    Размер скачиваемого торрента: 2.17 GB (2334245489 Bytes)

    Робот по имени Чаппи/Chappie (2015) BDRip-AVC | Лицензия
    загрузка...
    Рейтинг →
     (голосов: 1, оценка 3/5, голосовать можно 1 раз )

    Другие торренты по теме:

  • Робот по имени Чаппи / Chappie (2015) CAMRip
  • Робот по имени Чаппи / Chappie (2015) TS *PROPER*
  • Робот по имени Чаппи / Chappie (2015) TS
  • Робот по имени Чаппи / Chappie (2015) WEB-DL 720p | iTunes
  • Робот по имени Чаппи / Chappie (2015) WEB-DLRip от Scarabey | iTunes
  • Робот по имени Чаппи / Chappie (2015) WEB-DLRip-AVC | iTunes
  • Робот по имени Чаппи / Chappie (2015) HDRip | iTunes
  • Робот по имени Чаппи / Chappie (2015) BDRip 720p | iTunes


    • Комментарии (0):

      Информация

      Информация

        Посетители, находящиеся в группе Гости, не могут оставлять комментарии в данной новости.

        ↓ Меню



        ↓ Опрос

        А Вы добавили сайт в закладки?
        Да
        Не


        Top 10 за месяц (Фильмы)