.
Авторизация | Регистрация
Хочешь лучшие торренты? Добавь свой email!
Добавить
» » Отбор / The Culling (2015) WEB-DL 720p | L1 торрент скачать бесплатно




    Отбор / The Culling (2015) WEB-DL 720p | L1 торрент скачать бесплатно

    Опубликовал: Админ | Дата: 6-06-2015, 15:04 | Просмотров: 65



    Детально о кино
    Русское название: Отбор
    Русское название в мировом прокате: The Culling
    Создали в: 2015
    Категория жанра: триллер
    Главный режиссер: Растем Бренемен

    Актеры
    Джереми Самптер, Элизабет Дипринсио, Бретт Даверн, Крис Кой, Линси Годфри, Вирджиния Уильямс, Джонатон Шек, Харли Грэхэм, Дженнифер Боуман, Челси Брюленд

    Сюжет фильма
    Пятеро молодых людей выезжают за город чтобы посетить концерт. Однако их планы меняются кардинальным образом когда друзья находят на парковке семилетнюю девочку, которая по непонятным причинам осталась одна. Проводив девочку к одиноко стоящему дому они оказываются вынуждены остаться там на ночь, что вовсе не предусмотрело некое зло, обитающее в доме, зло, с которым и предстоит столкнуться ребятам.


    Снималось в: США/Safady Entertainment, Silver Lining Media Group, The Culling Productions
    Время просмотра: 01: 21: 55
    Тип перевода: Любительское (одноголосое) datynet, перевод Anton1
    Файл
    Тип видео: MKV
    Качество фильма: WEB-DL 720p
    Информация о видео: 3840 kb/s, 1280x718
    Информация о звуке: Russian/English: AC3, 384 kb/s (6 ch)
    MI

    Format : Matroska
    Format version : Version 4/Version 2
    File size : 2.69 GiB
    Duration : 1h 21mn
    Overall bit rate : 4 701 Kbps
    Movie name : The.Culling.2015.720p.WEB-DL
    Encoded date : UTC 2015-06-06 05: 53: 03
    Writing application : mkvmerge v6.9.1 (;Blue Panther;) 64bit built on Apr 18 2014 18: 23: 38
    Writing library : libebml v1.3.0 + libmatroska v1.4.1
    Video
    ID : 1
    Format : AVC
    Format/Info : Advanced Video Codec
    Format profile : High@L3.1
    Format settings, CABAC : No
    Format settings, ReFrames : 2 frames
    Codec ID : V_MPEG4/ISO/AVC
    Duration : 1h 21mn
    Bit rate : 3 840 Kbps
    Width : 1 280 pixels
    Height : 718 pixels
    Display aspect ratio : 16: 9
    Frame rate : 23.976 fps
    Color space : YUV
    Chroma subsampling : 4: 2: 0
    Bit depth : 8 bits
    Scan type : Progressive
    Bits/(Pixel*Frame) : 0.174
    Stream size : 2.20 GiB (82%)
    Title : The.Culling.2015.720p.WEB-DL
    Language : English
    Default : Yes
    Forced : No
    Color primaries : BT.709-5, BT.1361, IEC 61966-2-4, SMPTE RP177
    Transfer characteristics : BT.709-5, BT.1361
    Matrix coefficients : BT.709-5, BT.1361, IEC 61966-2-4 709, SMPTE RP177
    Audio #1
    ID : 2
    Format : AC-3
    Format/Info : Audio Coding 3
    Mode extension : CM (complete main)
    Format settings, Endianness : Big
    Codec ID : A_AC3
    Duration : 1h 21mn
    Bit rate mode : Constant
    Bit rate : 384 Kbps
    Channel(s) : 6 channels
    Channel positions : Front: L C R, Side: L R, LFE
    Sampling rate : 48.0 KHz
    Bit depth : 16 bits
    Compression mode : Lossy
    Stream size : 225 MiB (8%)
    Title : datynet
    Language : Russian
    Default : Yes
    Forced : No
    Audio #2
    ID : 3
    Format : AC-3
    Format/Info : Audio Coding 3
    Mode extension : CM (complete main)
    Format settings, Endianness : Big
    Codec ID : A_AC3
    Duration : 1h 21mn
    Bit rate mode : Constant
    Bit rate : 384 Kbps
    Channel(s) : 6 channels
    Channel positions : Front: L C R, Side: L R, LFE
    Sampling rate : 48.0 KHz
    Bit depth : 16 bits
    Compression mode : Lossy
    Stream size : 225 MiB (8%)
    Title : original
    Language : English
    Default : No
    Forced : No
    Menu
    00: 00: 00.000 : en: 1
    00: 03: 02.000 : en: 2
    00: 09: 15.000 : en: 3
    00: 13: 10.000 : en: 4
    00: 19: 32.000 : en: 5
    00: 24: 05.000 : en: 6
    00: 30: 29.000 : en: 7
    00: 36: 01.000 : en: 8
    00: 40: 02.000 : en: 9
    00: 45: 37.000 : en: 10
    00: 51: 25.000 : en: 11
    00: 57: 10.000 : en: 12
    01: 03: 06.000 : en: 13
    01: 08: 00.000 : en: 14
    01: 12: 49.000 : en: 15
    01: 16: 50.000 : en: 16
    Скриншоты



    Размер скачиваемого торрента: 2.69 GB (2888417408 Bytes)

    Отбор/The Culling (2015) WEB-DL 720p | L1
    загрузка...
    Рейтинг →
     (голосов: 1, оценка 5/5, голосовать можно 1 раз )

    Другие торренты по теме:



      Комментарии (0):

      Информация

      Информация

        Посетители, находящиеся в группе Гости, не могут оставлять комментарии в данной новости.

        ↓ Меню



        ↓ Опрос

        А Вы добавили сайт в закладки?
        Да
        Не


        Top 10 за месяц (Фильмы)