.
Авторизация | Регистрация
Хочешь лучшие торренты? Добавь свой email!
Добавить
» » Женщина в черном 2: Ангел смерти / The Woman in Black 2: Angel of Death (2014) DVD5 | Лицензия торрент скачать бесплатно




    Женщина в черном 2: Ангел смерти / The Woman in Black 2: Angel of Death (2014) DVD5 | Лицензия торрент скачать бесплатно

    Опубликовал: Админ | Дата: 6-06-2015, 18:01 | Просмотров: 95


    Детально о кино
    Русское название: Женщина в черном 2: Ангел смерти
    Русское название в мировом прокате: The Woman in Black 2: Angel of Death
    Создали в: 2014
    Категория жанра: ужасы, триллер, драма
    Главный режиссер: Том Харпер/Tom Harper

    Актеры
    Фиби Фокс, Меррин Пирс, Мэри Роско, Хелен МакКрори, Амелия Крауч, Амелия Пиджон, Каспер Олпресс, Пип Пирс, Лейла де Меса, Джуд Райт

    Сюжет фильма

    Во время Второй мировой войны группу школьников и их юную учительницу Еву эвакуируют из подвергшегося бомбардировкам Лондона в заброшенное поместье, расположенное в деревенской глуши. Вскоре в деревне начинают происходить странные события. Ева с помощью начальника местного гарнизона Гарри обнаруживает, что приезд детей пробудил темные силы, внушающие больший ужас, чем вражеские бомбардировки. Теперь Ева должна противостоять силам зла, спасти детей и пережить встречу с Женщиной в черном.

    Снималось в: Великобритания, США, Канада
    Киностудия: Alliance Films, Da Vinci Media Ventures, Exclusive Media Group, Hammer Film Productions Limited, Hammer Films, Talisman Productions, Vertigo Entertainment
    Время просмотра: 01: 34: 04
    Перевод текста: Профессиональный (дублированный) Лицензия
    Файл
    Кодек для видео: MPEG2
    Качество фильма: DVD5 R5
    Информация о видео: PAL 16: 9 (720x576(0.523)) MPEG Video, 25, 000 кадр/сек, 5418 Кбит/сек
    Информация о звуке: Russian (Dolby AC3, 6 ch) 448 Кбит/сек, 48, 0 КГц
    Субтитры: нет
    DVDInfo
    Title: Рабочий
    Size: 3.94 Gb ( 4 135 008 KBytes ) - DVD-5
    Enabled regions: 1, 2, 3, 4, 5, 6, 7, 8
    VTS_01 :
    Play Length: 00: 00: 19
    Video: PAL 16: 9 (720x576) VBR, Auto PanScan, Auto Letterboxed
    Audio:
    Not specified (Dolby AC3, 2 ch)
    VTS_02 :
    Play Length: 01: 34: 04
    Video: PAL 16: 9 (720x576) VBR, Auto PanScan, Auto Letterboxed
    Audio:
    Not specified (Dolby AC3, 6 ch)
    Menu Video:
    PAL 16: 9 (720x576) VBR
    Auto PanScan, Auto Letterboxed
    Menu Subtitles:
    Not specified
    Menu English Language Unit :
    Root Menu

    MediaInfo
    Общее
    Полное имя : F: Новинки 2015Zhenshhina.v.chernom.2.2014.DVD5VIDEO_TSVTS_02_2.VOB
    Формат : MPEG-PS
    Размер файла : 1024 Мбайт
    Продолжительность : 23 м.
    Режим общего битрейта : Переменный
    Общий поток : 5986 Кбит/сек
    Видео
    Идентификатор : 224 (0xE0)
    Формат : MPEG Video
    Версия формата : Version 2
    Профиль формата : Main@Main
    Параметр BVOP формата : Да
    Параметр матрицы формата : Выборочная
    Параметр GOP формата : M=3, N=15
    Структура изображения : Frame
    Продолжительность : 23 м.
    Вид битрейта : Переменный
    Битрейт : 5418 Кбит/сек
    Максимальный битрейт : 9000 Кбит/сек
    Ширина : 720 пикселей
    Высота : 576 пикселей
    Соотношение сторон : 16: 9
    Частота кадров : 25, 000 кадров/сек
    Стандарт вещания : PAL
    Цветовое пространство : YUV
    Субдискретизация насыщенности : 4: 2: 0
    Битовая глубина : 8 бит
    Тип развёртки : Чересстрочная
    Порядок развёртки : Верхнее поле первое
    Метод сжатия : С потерями
    Бит/(Пиксели*Кадры) : 0.523
    Временной код первого кадра : 00: 25: 27: 18
    Оригинал временного кода : Group of pictures t_head
    GOP, открыто/закрыто : Закрыто
    Размер потока : 927 Мбайт (91%)
    Аудио
    Идентификатор : 189 (0xBD)-128 (0x80)
    Формат : AC-3
    Формат/Информация : Audio Coding 3
    Расширение режима : CM (complete main)
    Параметр Endianness формата : Big
    Режим смешивания : DVD-Video
    Продолжительность : 23 м.
    Вид битрейта : Постоянный
    Битрейт : 448 Кбит/сек
    Каналы : 6 каналов
    Расположение каналов : Front: L C R, Side: L R, LFE
    Частота : 48, 0 КГц
    Метод сжатия : С потерями
    Задержка видео : -616 мс.
    Размер потока : 76, 6 Мбайт (7%)

    Скриншоты меню


    Скриншоты фильма


    Релиз подготовил:

    Онлайн видео Женщина в черном 2: Ангел смерти


    Размер скачиваемого торрента: 3.94 GB (4234248192 Bytes)

    Женщина в черном 2: Ангел смерти/The Woman in Black 2: Angel of Death (2014) DVD5 | Лицензия
    загрузка...
    Рейтинг →
     (голосов: 1, оценка 5/5, голосовать можно 1 раз )

    Другие торренты по теме:

  • Женщина в черном / The Woman in Black (2012) BDRip-AVC
  • Свидетельница / Женщина в опасности / La femme cachee (2012) SATRip от GalVid | L1
  • Безымянная - одна женщина в Берлине / Anonyma - Eine Frau in Berlin (2008) DVDRip от Youtracker | P | Полная версия
  • OST - Женщина в чёрном / The Woman In Black (2012) MP3
  • Порядок действий: Женщина в опасности (2010) SATRip
  • Женщина в зеркале / Una donna allo specchio (1984) DVDRip
  • Женщина в красном / The Woman in Red (1984) HDTVRip от Blake | A
  • Женщина в клетке / Мистериум. Начало / The Keeper of Lost Causes / The Woman in the Cage (2013) BDRip 1080p от CINEMANIA | P скачать через торрент бесплатно


    • Комментарии (0):

      Информация

      Информация

        Посетители, находящиеся в группе Гости, не могут оставлять комментарии в данной новости.

        ↓ Меню



        ↓ Опрос

        А Вы добавили сайт в закладки?
        Да
        Не


        Top 10 за месяц (Фильмы)