.
Авторизация | Регистрация
» » Женщина в черном 2: Ангел смерти / The Woman in Black 2: Angel of Death (2014) BDRip-AVC | Лицензия скачать торрент бесплатно




    Женщина в черном 2: Ангел смерти / The Woman in Black 2: Angel of Death (2014) BDRip-AVC | Лицензия скачать торрент бесплатно

    Опубликовал: Админ | Дата: 6-06-2015, 21:05 | Просмотров: 125



    Русское название: Женщина в черном 2: Ангел смерти
    Русское название в мировом прокате: The Woman in Black 2: Angel of Death
    Создали в: 2014
    Категория жанра: Ужасы, триллер, драма
    Снималось в: Великобритания, Канада, Alliance Films, Da Vinci Media Ventures, Exclusive Media Group
    Время просмотра: 01: 38: 32
    Перевод текста: Дублированный
    Субтитры:
    Английские
    Главный режиссер: Том Харпер

    Актеры
    Фиби Фокс, Меррин Пирс, Мэри Роско, Хелен МакКрори, Амелия Крауч, Амелия Пиджон, Каспер Олпресс, Пип Пирс, Лейла де Меса, Джуд Райт

    Сюжет фильма
    Во время Второй мировой войны группу школьников и их юную учительницу Еву эвакуируют из подвергшегося бомбардировкам Лондона в заброшенное поместье, расположенное в деревенской глуши. Вскоре в деревне начинают происходить странные события. Ева с помощью начальника местного гарнизона Гарри обнаруживает, что приезд детей пробудил темные силы, внушающие больший ужас, чем вражеские бомбардировки. Теперь Ева должна противостоять силам зла, спасти детей и пережить встречу с Женщиной в черном.

    Качество фильма: BDRip-AVC
    Информация о видео: AVC, 1168x488 (2.35: 1), 23.976 fps, 2 260 Kbps (0.165 bit/pixel)
    Информация о звуке #1: AC-3, 48.0 KHz, 6 ch, 448 Kbps, CBR (English)
    Информация о звуке #2: AC-3, 48.0 KHz, 6 ch, 448 Kbps, CBR (Russian)
    Релиз подготовил: FAGOT100
    MediaInfo:
    Формат : Matroska
    Версия формата : Version 2
    Размер файла : 2, 17 Гбайт
    Продолжительность : 1 ч. 38 м.
    Общий поток : 3155 Кбит/сек
    Дата кодирования : UTC 2015-06-06 15: 44: 07
    Программа кодирования : mkvmerge v5.3.0 (;I could have danced;) built on Feb 9 2012 10: 38: 07
    Библиотека кодирования : libebml v1.2.3 + libmatroska v1.3.0
    Attachment : Yes
    Видео
    Идентификатор : 1
    Формат : AVC
    Формат/Информация : Advanced Video Codec
    Профиль формата : High@L4.1
    Параметр CABAC формата : Да
    Параметр ReFrames формата : 9 кадров
    Идентификатор кодека : V_MPEG4/ISO/AVC
    Продолжительность : 1 ч. 38 м.
    Битрейт : 2260 Кбит/сек
    Ширина : 1168 пикселей
    Высота : 488 пикселей
    Соотношение сторон : 2, 40: 1
    Режим частоты кадров : Постоянный
    Частота кадров : 23, 976 кадра/сек
    Цветовое пространство : YUV
    Субдискретизация насыщенности : 4: 2: 0
    Битовая глубина : 8 бит
    Тип развёртки : Прогрессивная
    Бит/(Пиксели*Кадры) : 0.165
    Размер потока : 1, 51 Гбайт (70%)
    Библиотека кодирования : x264 core 146 r2538 121396c
    Настройки программы : cabac=1/ref=9/deblock=1: -2: -2/analyse=0x3: 0x133/me=umh/subme=10/psy=1/psy_rd=1.00: 0.00/mixed_ref=1/me_range=32/chroma_me=1/trellis=2/8x8dct=1/cqm=0/deadzone=21, 11/fast_pskip=1/chroma_qp_offset=-2/threads=12/lookahead_threads=1/sliced_threads=0/nr=0/decimate=0/interlaced=0/bluray_compat=0/constrained_intra=0/bframes=6/b_pyramid=2/b_adapt=2/b_bias=0/direct=3/weightb=1/open_gop=0/weightp=2/keyint=240/keyint_min=23/scenecut=40/intra_refresh=0/rc=2pass/mbtree=0/bitrate=2260/ratetol=1.0/qcomp=0.60/qpmin=0/qpmax=69/qpstep=4/cplxblur=20.0/qblur=0.5/ip_ratio=1.40/pb_ratio=1.30/aq=2: 1.00
    Default : Да
    Forced : Нет
    Аудио #1
    Идентификатор : 2
    Формат : AC-3
    Формат/Информация : Audio Coding 3
    Расширение режима : CM (complete main)
    Параметр Endianness формата : Big
    Идентификатор кодека : A_AC3
    Продолжительность : 1 ч. 38 м.
    Вид битрейта : Постоянный
    Битрейт : 448 Кбит/сек
    Каналы : 6 каналов
    Расположение каналов : Front: L C R, Side: L R, LFE
    Частота : 48, 0 КГц
    Битовая глубина : 16 бит
    Метод сжатия : С потерями
    Размер потока : 316 Мбайт (14%)
    Язык : English
    Default : Нет
    Forced : Нет
    Аудио #2
    Идентификатор : 3
    Формат : AC-3
    Формат/Информация : Audio Coding 3
    Расширение режима : CM (complete main)
    Параметр Endianness формата : Big
    Идентификатор кодека : A_AC3
    Продолжительность : 1 ч. 38 м.
    Вид битрейта : Постоянный
    Битрейт : 448 Кбит/сек
    Каналы : 6 каналов
    Расположение каналов : Front: L C R, Side: L R, LFE
    Частота : 48, 0 КГц
    Битовая глубина : 16 бит
    Метод сжатия : С потерями
    Размер потока : 316 Мбайт (14%)
    Язык : Russian
    Default : Да
    Forced : Нет
    Текст #1
    Идентификатор : 4
    Формат : UTF-8
    Идентификатор кодека : S_TEXT/UTF8
    Идентификатор кодека/Информация : UTF-8 Plain Text
    Язык : English
    Default : Нет
    Forced : Нет
    Текст #2
    Идентификатор : 5
    Формат : UTF-8
    Идентификатор кодека : S_TEXT/UTF8
    Идентификатор кодека/Информация : UTF-8 Plain Text
    Заголовок : SDH
    Язык : English
    Default : Нет
    Forced : Нет
    Меню
    00: 00: 00.000 : en: 00: 00: 00.000
    00: 07: 33.745 : en: 00: 07: 33.745
    00: 11: 13.798 : en: 00: 11: 13.798
    00: 18: 38.409 : en: 00: 18: 38.409
    00: 20: 51.167 : en: 00: 20: 51.167
    00: 24: 53.659 : en: 00: 24: 53.659
    00: 30: 43.008 : en: 00: 30: 43.008
    00: 34: 04.000 : en: 00: 34: 04.000
    00: 35: 44.893 : en: 00: 35: 44.893
    00: 39: 13.184 : en: 00: 39: 13.184
    00: 41: 52.677 : en: 00: 41: 52.677
    00: 43: 34.737 : en: 00: 43: 34.737
    00: 47: 58.626 : en: 00: 47: 58.626
    00: 48: 57.184 : en: 00: 48: 57.184
    00: 53: 13.315 : en: 00: 53: 13.315
    00: 55: 54.643 : en: 00: 55: 54.643
    01: 01: 20.510 : en: 01: 01: 20.510
    01: 07: 58.992 : en: 01: 07: 58.992
    01: 11: 51.641 : en: 01: 11: 51.641
    01: 16: 41.347 : en: 01: 16: 41.347
    01: 19: 57.167 : en: 01: 19: 57.167
    01: 23: 13.030 : en: 01: 23: 13.030
    01: 30: 24.919 : en: 01: 30: 24.919
    01: 33: 01.201 : en: 01: 33: 01.201
    Скриншоты





    Онлайн видео Женщина в черном 2: Ангел смерти


    Размер скачиваемого торрента: 2.17 GB (2332103052 Bytes)

    Женщина в черном 2: Ангел смерти/The Woman in Black 2: Angel of Death (2014) BDRip-AVC | Лицензия
    загрузка...
    Рейтинг →
     (голосов: 1, оценка 4/5, голосовать можно 1 раз )

    Другие торренты по теме:

  • the Chemodan - Кроме женщин и детей (2012) MP3 от AGR - Generalfilm торрент скачать бесплатно
  • Янина Познянская - Как деловой женщине стать счастливой женой (2012) PDF торрент скачать бесплатно
  • Поцелуй женщины-паука / Kiss of the Spider Woman (1985) BDRip от Rulya74 торрент скачать бесплатно
  • Женщина-кошка / Catwoman (2004) HDRip-AVC торрент скачать бесплатно
  • Женщина в черном / The Woman in Black (2012) BDRip-AVC торрент скачать бесплатно
  • Маленькие женщины / Little Women (1994) HDTVRip от Scarabey | P торрент скачать бесплатно
  • Запах женщины / Scent of a Woman (1992) HDRip от Scarabey | P торрент скачать бесплатно
  • Не говоря о всех этих женщинах / Fr att inte tala om alla dessa kvinnor (1964) DVDRip от Киномагия l P торрент скачать бесплатно


    • Комментарии (0):

      Информация

      Информация

        Посетители, находящиеся в группе Гости, не могут оставлять комментарии в данной новости.

        ↓ Меню



        ↓ Опрос

        А Вы добавили сайт в закладки?
        Да
        Не


        Top 10 за неделю (Фильмы)