.
Авторизация | Регистрация




Весна (1947) DVDRip от New-Team скачать торрент бесплатно

Опубликовал: Админ | Дата: 7-06-2015, 06:09 | Просмотров: 203


Снималось в: СССР
Создали в: Мосфильм
Категория жанра: мюзикл, фантастика, мелодрама, комедия
Создали в: 1947
Время просмотра: 01: 41: 56
Перевод текста: Не требуется
Субтитры подготовлены: нет
Оригинальная аудиодорожка: русский
Главный режиссер: Григорий Александров

Актеры

Любовь Орлова, Николай Черкасов, Николай Коновалов, Михаил Сидоркин, Василий Зайчиков, Ростислав Плятт, Фаина Раневская, Рина Зелёная, Борис Петкер, Татьяна Гурецкая...
Описание:
Лирическая комедия, тему которой сами герои определяют как пробуждение весны в душе человека. Молодая артистка оперетты Вера Шатрова впервые снимается в кино — ей предстоит сыграть роль Ирины Никитиной, крупного ученого, руководительницы Института солнца. Благодаря удивительному сходству, Никитина и Шатрова постоянно оказываются в самых невероятных ситуациях и… каждая встречает свою любовь.



Источник: DVB
Качество фильма видео: SATRip
Тип видео видео: AVI
Информация о видео: 704x512 (1, 375: 1), 25 fps, XviD ~ 1849 kbps avg, 0.205 bit/pixel
Информация о звуке: 48 kHz, Dolby Digital AC3 2.0, 192 kbps
Раздача от:
MediaInfo

Общее
Полное имя : Vesna.1947.SATRip_New-team_by_AVP_Studio.avi
Формат : AVI
Формат/Информация : Audio Video Interleave
Размер файла : 1, 46 Гбайт
Продолжительность : 1 ч. 41 м.
Общий поток : 2051 Кбит/сек
Программа кодирования : VirtualDubModRus 1.5.10.2 (build 2542/release)
Библиотека кодирования : VirtualDubMod build 2542/release
Видео
Идентификатор : 0
Формат : MPEG-4 Visual
Профиль формата : Advanced Simple@L5
Параметр BVOP формата : 1
Параметр QPel формата : Нет
Параметр GMC формата : Без точки перехода
Параметр матрицы формата : Выборочная
Идентификатор кодека : XVID
Идентификатор кодека/Подсказка : XviD
Продолжительность : 1 ч. 41 м.
Битрейт : 1849 Кбит/сек
Ширина : 704 пикселя
Высота : 512 пикселей
Соотношение сторон : 1, 375
Частота кадров : 25, 000 кадров/сек
Цветовое пространство : YUV
Субдискретизация насыщенности : 4: 2: 0
Битовая глубина : 8 бит
Тип развёртки : Прогрессивная
Метод сжатия : С потерями
Бит/(Пиксели*Кадры) : 0.205
Размер потока : 1, 32 Гбайт (90%)
Библиотека кодирования : XviD 73
Аудио
Идентификатор : 1
Формат : AC-3
Формат/Информация : Audio Coding 3
Расширение режима : CM (complete main)
Параметр Endianness формата : Big
Идентификатор кодека : 2000
Продолжительность : 1 ч. 41 м.
Вид битрейта : Постоянный
Битрейт : 192 Кбит/сек
Каналы : 2 канала
Расположение каналов : Front: L R
Частота : 48, 0 КГц
Битовая глубина : 16 бит
Метод сжатия : С потерями
Размер потока : 140 Мбайт (9%)
Выравнивание : Разделение по промежуткам
Продолжительность промежутка : 40 мс. (1, 00 видеокадр)
Время предзагрузки промежутка : 500 мс

Скриншоты



Залил: AVPStudio

Онлайн видео Весна (1947) DVDRip от New


Размер скачиваемого торрента: 1.46 GB (1567602688 Bytes)

Весна (1947) DVDRip от New-Team
загрузка...
Рейтинг →
 (голосов: 1, оценка 5/5, голосовать можно 1 раз )

Другие торренты по теме:



    Комментарии (0):

    Информация

    Информация

      Посетители, находящиеся в группе Гости, не могут оставлять комментарии в данной новости.

      ↓ Меню



      ↓ Опрос

      А Вы добавили сайт в закладки?
      Да
      Не


      Top 10 за неделю (Фильмы)