.
Авторизация | Регистрация
» » Корабль (2013-2015) WEB-DLRip от Generalfilm | КПК скачать торрент бесплатно




    Корабль (2013-2015) WEB-DLRip от Generalfilm | КПК скачать торрент бесплатно

    Опубликовал: Админ | Дата: 7-06-2015, 21:01 | Просмотров: 193


    Русское название в мировом прокате: Корабль
    Создали в: 2013
    Категория жанра: Мистический триллер, фантастика, приключения, мелодрама, постапокалиптика
    Главный режиссер: Олег Асадулин, Марк Горобец

    Актеры
    Дмитрий Певцов, Илья Любимов, Юлия Агафонова, Агриппина Стеклова, Владимир Виноградов, Ингрид Олеринская, Матвей Зубалевич, Сергей Друзьяк, Александр Пугачёв (II), Илья Иосифов, Ярослава Базаева, Дмитрий Горевой, Ирина Антоненко, Мария Малиновская, Роман Курцын, Руслан Садковский, Вячеслав Бондарчук, Анастасия Сорокина, Фёдор Сухов, Дарья Храмцова

    Сюжет фильма

    Капитан Громов, который совсем недавно похоронил свою жену, вынужден взять в плавание двух дочерей. Заботиться о младшей дочери Валерии ему помогают проворная повариха Надежда и ученая Ксения, в которую Капитан безответно влюблен. Помощник поварихи - трогательный Орлуша найдет выход из самой сложной ситуации. А штурман Ракита доведет до белой горячки любого, кто посмеет пойти против устава. Но реальную опасность для всех представляет преподаватель по выживанию Герман, у которого свои планы на корабль.

    Снималось в: Россия
    Киностудия: Yellow, Black and White, при участии кинокомпании Мэйнстрим фильм и телеканала Ю
    Время просмотра: 52 х ~ 00: 48: 00
    Перевод текста: Не требуется
    Файл
    Тип видео: MP4
    Качество фильма: WEB-DLRip | КПК
    Информация о видео: MPEG-4 AVC (x264), 640x360, ~500 kbps, 25.000 fps
    Информация о звуке: AAC LC, 44.1 KHz, 2 ch, 128 Kbps
    Субтитры: Нет
    Семпл
    Скриншоты

    MI
    Complete name : E: KinoKorabl.AVC.WEB-DLRip.KPK.GeneralfilmKorabl.S02.2015.AVC.WEB-DLRip.KPK.GeneralfilmKorabl.s02e08.2015.AVC.WEB-DLRip.KPK.Generalfilm.mp4
    Format : MPEG-4
    Format profile : Base Media
    Codec ID : isom
    File size : 219 MiB
    Duration : 48mn 31s
    Overall bit rate mode : Variable
    Overall bit rate : 632 Kbps
    Encoded date : UTC 2015-05-20 20: 59: 11
    Tagged date : UTC 2015-05-20 20: 59: 11
    Video
    ID : 1
    Format : AVC
    Format/Info : Advanced Video Codec
    Format profile : High@L4.1
    Format settings, CABAC : Yes
    Format settings, ReFrames : 8 frames
    Codec ID : avc1
    Codec ID/Info : Advanced Video Coding
    Duration : 48mn 31s
    Bit rate : 500 Kbps
    Maximum bit rate : 3 724 Kbps
    Width : 640 pixels
    Height : 336 pixels
    Display aspect ratio : 1.905
    Frame rate mode : Constant
    Frame rate : 25.000 fps
    Color space : YUV
    Chroma subsampling : 4: 2: 0
    Bit depth : 8 bits
    Scan type : Progressive
    Bits/(Pixel*Frame) : 0.093
    Stream size : 173 MiB (79%)
    Writing library : x264 core 130 r2273 b3065e6
    Encoding settings : cabac=1/ref=8/deblock=1: -1: -1/analyse=0x3: 0x133/me=umh/subme=10/psy=1/psy_rd=1.00: 0.00/mixed_ref=1/me_range=24/chroma_me=1/trellis=2/8x8dct=1/cqm=0/deadzone=21, 11/fast_pskip=1/chroma_qp_offset=-2/threads=3/lookahead_threads=1/sliced_threads=0/nr=0/decimate=1/interlaced=0/bluray_compat=0/constrained_intra=0/bframes=8/b_pyramid=2/b_adapt=2/b_bias=0/direct=3/weightb=1/open_gop=0/weightp=2/keyint=250/keyint_min=126/scenecut=40/intra_refresh=0/rc_lookahead=40/rc=2pass/mbtree=1/bitrate=500/ratetol=1.0/qcomp=0.60/qpmin=0/qpmax=69/qpstep=4/cplxblur=20.0/qblur=0.5/ip_ratio=1.40/aq=1: 1.00
    Encoded date : UTC 2015-05-20 20: 59: 11
    Tagged date : UTC 2015-05-20 20: 59: 44
    Audio
    ID : 2
    Format : AAC
    Format/Info : Advanced Audio Codec
    Format profile : LC
    Codec ID : 40
    Duration : 48mn 31s
    Bit rate mode : Variable
    Bit rate : 128 Kbps
    Maximum bit rate : 166 Kbps
    Channel(s) : 2 channels
    Channel positions : Front: L R
    Sampling rate : 48.0 KHz
    Compression mode : Lossy
    Stream size : 44.5 MiB (20%)
    Encoded date : UTC 2015-05-20 20: 59: 42
    Tagged date : UTC 2015-05-20 20: 59: 44

    Релиз подготовил: Спс за исходник:
    Залил: toys_watch
    Размер скачиваемого торрента: 10.95 GB (11753936537 Bytes)

    Корабль (2013-2015) WEB-DLRip от Generalfilm | КПК
    загрузка...
    Рейтинг →
     (голосов: 1, оценка 3/5, голосовать можно 1 раз )

    Другие торренты по теме:



      Комментарии (0):

      Информация

      Информация

        Посетители, находящиеся в группе Гости, не могут оставлять комментарии в данной новости.

        ↓ Меню



        ↓ Опрос

        А Вы добавили сайт в закладки?
        Да
        Не


        Top 10 за неделю (Фильмы)