.
Авторизация | Регистрация
Хочешь лучшие торренты? Добавь свой email!
Добавить
» » Токийская невеста / Tokyo Fiance (2015) WEBRip 1080p | Трейлер торрент скачать бесплатно




    Токийская невеста / Tokyo Fiance (2015) WEBRip 1080p | Трейлер торрент скачать бесплатно

    Опубликовал: Админ | Дата: 8-06-2015, 15:03 | Просмотров: 278


    Создали в: 2014
    Создали в: Франция, Канада, Бельгия
    Категория жанра: мелодрама
    Перевод текста: Дублированный
    Главный режиссер: Стефан Либерски
    Продюсеры: Жак-Анри Бронкар, Оливье Бронкар, Ричард Лалонд
    Актеры: Полин Этьен, Taichi Inoue, Жюли ЛеБретон, Элис де Ланкесэ, Akimi Ota, Хироки Кагеяма, Tokio Yokoi, Хироми Асаи, Shinnosuke Kasahara, Masaki Watanabe
    Описание фильма:
    Амели полна надежд начать новую жизнь — она едет в Японию, страну своего детства, чтобы найти вдохновение и написать книгу. На новом месте девушка дает объявление о частных уроках французского языка, и ее первым и единственным учеником становится Ринри — очаровательный молодой человек, с которым они вскоре сблизятся. В трудностях перевода, в неловких вечеринках и спонтанных путешествиях Амели откроет для себя невиданную Японию и научится любить.
    Дата мировой премьеры: 7 сентября 2014
    Дата российской премьеры: 16 июля 2015

    Время просмотра: 00: 01: 47
    Качество фильма видео: WEBRip
    Информация о видеокодек: MPEG-4 AVC/H.264
    Битрейт видео: 2302 Кбит/сек
    Размер скачиваемого торрента кадра: 1920x1080
    Информация о звукекодек: AAC
    Битрейт аудио: 126 Кбит/сек
    MediaInfo:

    Общее
    Полное имя : Токийская невеста Русский Трейлер (2015).mp4
    Формат : MPEG-4
    Профиль формата : Base Media
    Идентификатор кодека : isom
    Размер файла : 31, 2 Мбайт
    Продолжительность : 1 м. 47 с.
    Общий поток : 2433 Кбит/сек
    Программа кодирования : Lavf56.19.100
    Видео
    Идентификатор : 1
    Формат : AVC
    Формат/Информация : Advanced Video Codec
    Профиль формата : High@L4
    Параметр CABAC формата : Да
    Параметр ReFrames формата : 2 кадра
    Идентификатор кодека : avc1
    Идентификатор кодека/Информация : Advanced Video Coding
    Продолжительность : 1 м. 47 с.
    Битрейт : 2302 Кбит/сек
    Ширина : 1920 пикселей
    Высота : 1080 пикселей
    Соотношение сторон : 16: 9
    Режим частоты кадров : Постоянный
    Частота кадров : 25, 000 кадров/сек
    Цветовое пространство : YUV
    Субдискретизация насыщенности : 4: 2: 0
    Битовая глубина : 8 бит
    Тип развёртки : Прогрессивная
    Бит/(Пиксели*Кадры) : 0.044
    Размер потока : 29, 5 Мбайт (95%)
    Аудио
    Идентификатор : 2
    Формат : AAC
    Формат/Информация : Advanced Audio Codec
    Профиль формата : LC
    Идентификатор кодека : 40
    Продолжительность : 1 м. 47 с.
    Вид битрейта : Постоянный
    Битрейт : 126 Кбит/сек
    Каналы : 2 канала
    Расположение каналов : Front: L R
    Частота : 44, 1 КГц
    Метод сжатия : С потерями
    Размер потока : 1, 61 Мбайт (5%)

    Скриншоты



    Скриншоты



    Залил: Jokerzv

    Онлайн видео Токийская невеста


    Размер скачиваемого торрента: 31.16 MB (32676400 Bytes)

    Токийская невеста/Tokyo Fiance (2015) WEBRip 1080p | Трейлер
    загрузка...
    Рейтинг →
     (голосов: 1, оценка 4/5, голосовать можно 1 раз )

    Другие торренты по теме:



      Комментарии (0):

      Информация

      Информация

        Посетители, находящиеся в группе Гости, не могут оставлять комментарии в данной новости.

        ↓ Меню



        ↓ Опрос

        А Вы добавили сайт в закладки?
        Да
        Не


        Top 10 за месяц (Фильмы)