.
Авторизация | Регистрация
Хочешь лучшие торренты? Добавь свой email!
Добавить
» » Дрожь / Tenebre (1982) BDRip 720p от HQ-ViDEO | P торрент скачать бесплатно




    Дрожь / Tenebre (1982) BDRip 720p от HQ-ViDEO | P торрент скачать бесплатно

    Опубликовал: Админ | Дата: 8-06-2015, 15:03 | Просмотров: 69

    Дрожь/Tenebre (1982) BDRip 720p
    Релиз от HQ-ViDEO

    Детально о кино
    Русское название: Дрожь
    Русское название в мировом прокате: Tenebre
    Создали в: 1982
    Категория жанра: ужасы, триллер, детектив
    Главный режиссер: Дарио Ардженто /Dario Argento/

    Актеры
    Энтони Франчоза /Anthony Franciosa/, Кристиан Борромео /Christian Borromeo/, Мирелла Д’Анджело /Mirella D;Angelo/, Вероника Ларио /Veronica Lario/, Ания Пьерони /Ania Pieroni/, Ева Робинс /Eva Robin;s/, Карола Станьяро /Carola Stagnaro/, Джон Стайнер /John Steiner/, Лара Вендель /Lara Wendel/, Джон Сэксон /John Saxon/...

    Сюжет фильма

    Известный американский писатель Питер Нил, мастер леденящих душу триллеров, приезжает в Рим с рекламой нового романа. Вскоре в городе начинается эпидемия шокирующих убийств. Странным образом они повторяют сюжет только что написанной книги. Более того, кто-то начинает угрожать и самому писателю, который вынужден начать собственное расследование...

    Снималось в: Италия
    Время просмотра: 01: 40: 59
    Перевод текста: Русский профессиональный, многоголосый + Оригинальная, итальянская дорожка + Английская дорожка (отдельно) + Французская дорожка (отдельно)
    Файл
    Кодек для видео: MKV, H.264
    Качество фильма: BDRip 720p (Source: Blu-ray Disc)
    Информация о видео: 5691 kbps; 0.264 bit/pixel; 1280 x 692; 1.85: 1; 24 fps
    Информация о звуке #1: AC3 Dolby Digital; 192.00 kbps, 2 Ch - MVO
    Информация о звуке #2: AC3 Dolby Digital; 192.00 kbps, 2 Ch - ITA
    Информация о звуке #3: AC3 Dolby Digital; 192.00 kbps, 2 Ch - ENG (отдельно/скачать с Яндекс Диск)
    Информация о звуке #4: AC3 Dolby Digital; 192.00 kbps, 2 Ch - FRA (отдельно/скачать с Яндекс Диск)
    Субтитры: Русские, Английские (2 вида).(отдельно)
    Размер скачиваемого торрента: 4.37 GB
    SAMPLE/скачать с Яндекс Диск
    MediaInfo

    General
    Complete name : Drozh.1982.DUAL.BDRip.720p.h264.AC3.-HQ-ViDEO.mkv
    Format : Matroska
    File size : 4.37 GiB
    Duration : 1h 40mn
    Overall bit rate : 6 198 Kbps
    Movie name : Tenebre (1982)
    Encoded date : UTC 2011-02-09 13: 21: 49
    Writing application : mkvmerge v3.3.0 (;Language;) built on Mar 24 2010 14: 59: 24
    Writing library : libebml v0.8.0 + libmatroska v0.9.0
    Video
    ID : 1
    Format : AVC
    Format/Info : Advanced Video Codec
    Format profile : High@L4.1
    Format settings, CABAC : Yes
    Format settings, ReFrames : 6 frames
    Codec ID : V_MPEG4/ISO/AVC
    Duration : 1h 40mn
    Bit rate mode : Variable
    Bit rate : 5 691 Kbps
    Width : 1 280 pixels
    Height : 692 pixels
    Display aspect ratio : 1.850
    Frame rate : 24.000 fps
    Color space : YUV
    Chroma subsampling : 4: 2: 0
    Bit depth : 8 bits
    Scan type : Progressive
    Bits/(Pixel*Frame) : 0.268
    Stream size : 4.01 GiB (92%)
    Title : Encoded by GYN
    Audio #1
    ID : 2
    Format : AC-3
    Format/Info : Audio Coding 3
    Format profile : Dolby Digital
    Mode extension : CM (complete main)
    Codec ID : A_AC3
    Duration : 1h 40mn
    Bit rate mode : Constant
    Bit rate : 192 Kbps
    Channel(s) : 2 channels
    Channel positions : Front: L R
    Sampling rate : 48.0 KHz
    Bit depth : 16 bits
    Compression mode : Lossy
    Stream size : 139 MiB (3%)
    Title : MVO
    Language : Russian
    Audio #2
    ID : 3
    Format : AC-3
    Format/Info : Audio Coding 3
    Format profile : Dolby Digital
    Mode extension : CM (complete main)
    Codec ID : A_AC3
    Duration : 1h 40mn
    Bit rate mode : Constant
    Bit rate : 192 Kbps
    Channel(s) : 2 channels
    Channel positions : Front: L R
    Sampling rate : 48.0 KHz
    Bit depth : 16 bits
    Compression mode : Lossy
    Stream size : 139 MiB (3%)
    Title : Original
    Language : Italian





    Релиз подготовил: HQ-ViDEO
    Автор рипа: GYN
    Размер скачиваемого торрента: 4.37 GB (4694341677 Bytes)

    Дрожь/Tenebre (1982) BDRip 720p от HQ-ViDEO | P
    загрузка...
    Рейтинг →
     (голосов: 1, оценка 5/5, голосовать можно 1 раз )

    Другие торренты по теме:



      Комментарии (0):

      Информация

      Информация

        Посетители, находящиеся в группе Гости, не могут оставлять комментарии в данной новости.

        ↓ Меню



        ↓ Опрос

        А Вы добавили сайт в закладки?
        Да
        Не


        Top 10 за месяц (Фильмы)