.
Авторизация | Регистрация
Хочешь лучшие торренты? Добавь свой email!
Добавить
» » Меч дракона / Tian jiang xiong shi (2015) BDRip 720p | L2 торрент скачать бесплатно




    Меч дракона / Tian jiang xiong shi (2015) BDRip 720p | L2 торрент скачать бесплатно

    Опубликовал: Админ | Дата: 9-06-2015, 00:03 | Просмотров: 70



    Детально о кино
    Русское название: Меч дракона
    Русское название в мировом прокате: Tian jiang xiong shi/Dragon Blade
    Создали в: 2015
    Категория жанра: Боевик, драма, приключения
    Главный режиссер: Дэниэл Ли

    Актеры
    Джеки Чан, Джон Кьюсак, Эдриан Броуди, Шарни Винсон, Линь Пэн, Бенни Уркидез, Ши Вон Чхве, Темур Мамисашвили, Томер Оз, Кевин Ли, Лори, Пол Филип Кларк, Филипп Жоли, Ваннесс Ву, Джоэль Адриан, Макс Хуан, Рэйден Интегра, Мюррей Клайв Уокер, Вандер МакЛеод, Фатих Угурлу


    Сюжет фильма
    Действие фильма разворачивается в Древнем Китае во времена правления династии Хань. Римский полководец Луция с легионом своих солдат оказывается на территории Китая. В это же время командир отряда охраны Западного региона Хо Ань в результате предательства своих врагов становится рабом. И этим двум воинам было суждено встретиться в Западной пустыне, где развернётся эпическое сражение. Однако биться они будут не друг против друга, как можно было бы подумать, а против алчного императора Тиберия за суверенитет Китая.



    Снималось в: Китай/Beijing Cultural Assets Chinese Film and Television Fund, Home Media Entertainment Fund
    Время просмотра: 02: 07: 09
    Перевод текста: Любительский (двухголосый, закадровый)- Киностудия Пиратского дубляжа

    Файл
    Качество фильма: BDRip 720p
    Тип видео: MKV
    Информация о видео: MPEG4/AVC, 8824 Кбит/сек, 1280х536 (2.40: 1), 24.000 кадра/сек
    Информация о звуке 1: AC3, 2 канала, 384 Кбит/сек | Русский
    Информация о звуке 2: AC3, 6 каналов, 640 Кбит/сек | Английский
    Субтитры: Английские
    Навигация по главам: Есть

    MediaInfo:
    Общее
    Уникальный идентификатор : 195543085291755371030197152221266722867 (0x931C3A745E0F24E79CCE13F09DE04033)
    Полное имя : Dragon Blade. (2015) BDRip 720p.mkv
    Формат : Matroska
    Версия формата : Version 2
    Размер файла : 8, 92 Гбайт
    Продолжительность : 2 ч. 7 м.
    Общий поток : 10, 0 Мбит/сек
    Название фильма : Dragon Blade. 2015
    Дата кодирования : UTC 2015-06-08 13: 50: 43
    Программа кодирования : mkvmerge v5.8.0 (;No Sleep/Pillow;) built on Sep 2 2012 15: 37: 04
    Библиотека кодирования : libebml v1.2.3 + libmatroska v1.3.0

    Видео
    Идентификатор : 1
    Формат : AVC
    Формат/Информация : Advanced Video Codec
    Профиль формата : High@L4.1
    Параметр CABAC формата : Да
    Параметр ReFrames формата : 9 кадров
    Идентификатор кодека : V_MPEG4/ISO/AVC
    Продолжительность : 2 ч. 7 м.
    Битрейт : 8824 Кбит/сек
    Ширина : 1280 пикселей
    Высота : 536 пикселей
    Соотношение сторон : 2, 40: 1
    Режим частоты кадров : Постоянный
    Частота кадров : 24, 000 кадра/сек
    Цветовое пространство : YUV
    Субдискретизация насыщенности : 4: 2: 0
    Битовая глубина : 8 бит
    Тип развёртки : Прогрессивная
    Бит/(Пиксели*Кадры) : 0.536
    Размер потока : 7, 84 Гбайт (88%)
    Заголовок : MovietaM
    Библиотека кодирования : x264 core 146 r2538+50 0a51886 8-bit@4: 2: 0 X86_64
    Настройки программы : cabac=1/ref=9/deblock=1: -3: -3/analyse=0x3: 0x113/me=umh/subme=11/psy=1/fade_compensate=0.00/psy_rd=1.05: 0.10/mixed_ref=1/me_range=32/chroma_me=1/trellis=2/8x8dct=1/cqm=0/deadzone=21, 11/fast_pskip=0/chroma_qp_offset=-2/threads=12/lookahead_threads=2/sliced_threads=0/nr=0/decimate=1/interlaced=0/bluray_compat=0/constrained_intra=0/fgo=0/bframes=8/b_pyramid=2/b_adapt=2/b_bias=0/direct=3/weightb=1/open_gop=0/weightp=2/keyint=250/keyint_min=24/scenecut=40/intra_refresh=0/rc_lookahead=40/rc=crf/mbtree=0/crf=15.7000/qcomp=0.60/qpmin=0: 0: 0/qpmax=69: 69: 69/qpstep=4/vbv_maxrate=30000/vbv_bufsize=30000/crf_max=0.0/nal_hrd=none/filler=0/ip_ratio=1.40/pb_ratio=1.30/aq=3: 0.60/aq-sensitivity=10.00/aq-factor=1.00: 1.00: 1.00/aq2=0/aq3=0
    Язык : English
    Default : Да
    Forced : Нет
    Коэффициенты матрицы : BT.709

    Аудио #1
    Идентификатор : 2
    Формат : AC-3
    Формат/Информация : Audio Coding 3
    Расширение режима : CM (complete main)
    Параметр Endianness формата : Big
    Идентификатор кодека : A_AC3
    Продолжительность : 2 ч. 7 м.
    Вид битрейта : Постоянный
    Битрейт : 384 Кбит/сек
    Каналы : 2 канала
    Расположение каналов : Front: L R
    Частота : 48, 0 КГц
    Битовая глубина : 16 бит
    Метод сжатия : С потерями
    Размер потока : 349 Мбайт (4%)
    Заголовок : L2 | Студия Пиратского дубляжа
    Язык : Russian
    Default : Да
    Forced : Нет

    Аудио #2
    Идентификатор : 3
    Формат : AC-3
    Формат/Информация : Audio Coding 3
    Расширение режима : CM (complete main)
    Параметр Endianness формата : Big
    Идентификатор кодека : A_AC3
    Продолжительность : 2 ч. 7 м.
    Вид битрейта : Постоянный
    Битрейт : 640 Кбит/сек
    Каналы : 6 каналов
    Расположение каналов : Front: L C R, Side: L R, LFE
    Частота : 48, 0 КГц
    Битовая глубина : 16 бит
    Метод сжатия : С потерями
    Размер потока : 582 Мбайт (6%)
    Заголовок : Original
    Язык : English
    Default : Нет
    Forced : Нет

    Текст
    Идентификатор : 4
    Формат : UTF-8
    Идентификатор кодека : S_TEXT/UTF8
    Идентификатор кодека/Информация : UTF-8 Plain Text
    Заголовок : Full
    Язык : English
    Default : Нет
    Forced : Нет

    Меню
    00: 00: 00.000 : en: 00: 00: 00.000
    00: 06: 37.292 : en: 00: 06: 37.292
    00: 13: 24.583 : en: 00: 13: 24.583
    00: 23: 58.875 : en: 00: 23: 58.875
    00: 33: 57.042 : en: 00: 33: 57.042
    00: 40: 30.375 : en: 00: 40: 30.375
    00: 50: 12.583 : en: 00: 50: 12.583
    00: 59: 04.375 : en: 00: 59: 04.375
    01: 04: 50.500 : en: 01: 04: 50.500
    01: 14: 54.542 : en: 01: 14: 54.542
    01: 19: 41.292 : en: 01: 19: 41.292
    01: 26: 44.417 : en: 01: 26: 44.417
    01: 32: 30.333 : en: 01: 32: 30.333
    01: 38: 30.250 : en: 01: 38: 30.250
    01: 45: 03.875 : en: 01: 45: 03.875
    01: 52: 01.542 : en: 01: 52: 01.542



    Релиз подготовил:

    Онлайн видео Меч дракона


    Размер скачиваемого торрента: 8.92 GB (9582423483 Bytes)

    Меч дракона/Tian jiang xiong shi (2015) BDRip 720p | L2
    загрузка...
    Рейтинг →
     (голосов: 1, оценка 3/5, голосовать можно 1 раз )

    Другие торренты по теме:

  • Меч дракона / Tian jiang xiong shi (2015) ТС | P2
  • Меч дракона / Tian jiang xiong shi (2015) WEBRip-AVC от -=HD-NET=- | L2
  • Меч дракона / Tian jiang xiong shi (2015) WEBRip от -=HD-NET=- | КПК | L2
  • Меч дракона / Tian jiang xiong shi (2015) HDTVRip | L2
  • Меч дракона / Tian jiang xiong shi (2015) HDRip| L2
  • Меч дракона / Tian jiang xiong shi (2015) BDRip 1080p | L2
  • Меч дракона / Tian jiang xiong shi (2015) ВDRip от Generalfilm | КПК | L2
  • Меч дракона / Tian jiang xiong shi (2015) BDRip от Twi7ter | L2


    • Комментарии (0):

      Информация

      Информация

        Посетители, находящиеся в группе Гости, не могут оставлять комментарии в данной новости.

        ↓ Меню



        ↓ Опрос

        А Вы добавили сайт в закладки?
        Да
        Не


        Top 10 за месяц (Фильмы)