.
Авторизация | Регистрация
» » Проклятие 3 / The Grudge 3 (2009) DVD9 | P скачать торрент бесплатно




    Проклятие 3 / The Grudge 3 (2009) DVD9 | P скачать торрент бесплатно

    Опубликовал: Админ | Дата: 9-06-2015, 08:26 | Просмотров: 68



    Детально о кино
    Русское название: Проклятие 3
    Русское название в мировом прокате: The Grudge 3
    Создали в: 2009
    Категория жанра: ужасы, триллер, детектив
    Главный режиссер: Тоби Уилкинс

    Актеры
    Джоанна Э. Брэдди, Шоуни Смит, Аико Хориути, Симба Цутия, Гил МакКинни, Еми Икэхата, Джэди Хобсон, Бо Мирчофф, Марина Сиртис, Мэттью Найт

    Сюжет фильма

    Молодой японке известен способ положить конец распространению проклятия. Девушка вылетает в Чикаго, где в многоквартирном доме с призраками отчаянно сражается целая семья. Сообща они пытаются дать отпор беснующейся Каяко, чтобы спасти свои души от трагического фатума.

    Снималось в: США, Япония
    Киностудия: Ghost House Pictures, Vertigo Entertainment
    Время просмотра: 87 мин./01: 27
    Перевод текста: профессиональный (многоголосый, закадровый)
    Файл
    Кодек для видео: MPEG2
    Качество фильма: DVD9 Новый Диск
    Информация о видео: PAL 16: 9 (720x576@1024x576) VBR 6492 Kbps, 25.000 fps
    Информация о звуке: Dolby AC3, 2 ch, 48.0 KHz, 224 Kbps (русский, английский)
    Субтитры: отсутствуют
    MediaInfo
    Общее
    Полное имя : D: Проклятие.III.2009.DVD9VIDEO_TSVTS_07_1.VOB
    Формат : MPEG-PS
    Размер файла : 1024 Мбайт
    Продолжительность : 20 м.
    Режим общего битрейта : Переменный
    Общий поток : 7081 Кбит/сек
    Видео
    Идентификатор : 224 (0xE0)
    Формат : MPEG Video
    Версия формата : Version 2
    Профиль формата : Main@Main
    Параметр BVOP формата : Да
    Параметр матрицы формата : По умолчанию
    Параметр GOP формата : M=3, N=12
    Продолжительность : 20 м.
    Вид битрейта : Переменный
    Битрейт : 6492 Кбит/сек
    Максимальный битрейт : 7500 Кбит/сек
    Ширина : 720 пикселей
    Высота : 576 пикселей
    Соотношение сторон : 16: 9
    Частота кадров : 25, 000 кадров/сек
    Стандарт вещания : PAL
    Цветовое пространство : YUV
    Субдискретизация насыщенности : 4: 2: 0
    Битовая глубина : 8 бит
    Тип развёртки : Прогрессивная
    Метод сжатия : С потерями
    Бит/(Пиксели*Кадры) : 0.626
    Временной код первого кадра : 00: 00: 00: 00
    Оригинал временного кода : Group of pictures t_head
    GOP, открыто/закрыто : Открыто
    GOP, открыто/закрыто на первом кадре : Закрыто
    Размер потока : 939 Мбайт (92%)
    Аудио #1
    Идентификатор : 189 (0xBD)-128 (0x80)
    Формат : AC-3
    Формат/Информация : Audio Coding 3
    Расширение режима : CM (complete main)
    Параметр Endianness формата : Big
    Режим смешивания : DVD-Video
    Продолжительность : 20 м.
    Вид битрейта : Постоянный
    Битрейт : 224 Кбит/сек
    Каналы : 2 канала
    Расположение каналов : Front: L R
    Частота : 48, 0 КГц
    Метод сжатия : С потерями
    Размер потока : 32, 4 Мбайт (3%)
    Аудио #2
    Идентификатор : 189 (0xBD)-129 (0x81)
    Формат : AC-3
    Формат/Информация : Audio Coding 3
    Расширение режима : CM (complete main)
    Параметр Endianness формата : Big
    Режим смешивания : DVD-Video
    Продолжительность : 20 м.
    Вид битрейта : Постоянный
    Битрейт : 224 Кбит/сек
    Каналы : 2 канала
    Расположение каналов : Front: L R
    Частота : 48, 0 КГц
    Метод сжатия : С потерями
    Размер потока : 32, 4 Мбайт (3%)
    Меню
    Скриншоты


    Залил: carisha

    Онлайн видео Проклятие 3


    Размер скачиваемого торрента: 5.23 GB (5618200576 Bytes)

    Проклятие 3/The Grudge 3 (2009) DVD9 | P
    загрузка...
    Рейтинг →
     (голосов: 1, оценка 4/5, голосовать можно 1 раз )

    Другие торренты по теме:

  • Наталья Жильцова - Проклятие некроманта 01. Проклятие некроманта (2015) MP3 скачать торрент бесплатно
  • Дар или проклятие / Проклятая звезда торрент скачать бесплатно
  • Обитель зла Проклятие / Biohazard Damnation / Resident Evil Damnation (2012) BDRip 1080p от R.G. GoldenShara | Лицензия торрент скачать бесплатно
  • Обитель Зла: Проклятие / Resident Evil: Damnation (2012) BDRemux 1080p торрент скачать бесплатно
  • Расколотое проклятие: Кровавый Рубин / Break The Curse: The Crimson Gems (2012) PC торрент скачать бесплатно
  • Библиотекарь 3: Проклятие Иудовой чаши / The Librarian: The Curse of the Judas Chalice (2008) BDRemux 1080p от HDTracker торрент скачать бесплатно
  • Сваха 2. Проклятие брошенной / Matchmaker 2 (2013) РС торрент скачать бесплатно
  • Обитель Зла: Проклятие 3Д / Resident Evil: Damnation 3D (2012) BDRip 1080p | 3D-Video торрент скачать бесплатно


    • Комментарии (0):

      Информация

      Информация

        Посетители, находящиеся в группе Гости, не могут оставлять комментарии в данной новости.

        ↓ Меню



        ↓ Опрос

        А Вы добавили сайт в закладки?
        Да
        Не


        Top 10 за неделю (Фильмы)