.
Авторизация | Регистрация
» » Голые перцы / Search Party (2014) BDRip 720p от KinoGadget | iPad скачать торрент бесплатно




    Голые перцы / Search Party (2014) BDRip 720p от KinoGadget | iPad скачать торрент бесплатно

    Опубликовал: Админ | Дата: 9-06-2015, 08:26 | Просмотров: 127



    Создали в: 2014
    Снималось в: США
    Категория жанра: комедия
    Время просмотра: 01: 33: 05
    Перевод текста: Дублированный
    Главный режиссер: Скот Армстронг

    Актеры
    ТиДжей Миллер, Адам Палли, Томас Миддлдитч, Элисон Бри, Шеннон Мари Вудворд, Кристен Риттер, Тэрин Террелл, Лэнс Реддик, Роза Салазар, Джейсон Манцукас
    Описание: Для чего нужен мальчишник? Чтобы отметить последний день свободной жизни? Разделить сомнения с приятелем, который потом на церемонии вякнет, что он против этой свадьбы? Чтобы твоя оскорбленная невеста уехала одна в оплаченное свадебное путешествие в Мексику? Чтобы ты гнался за ней голый по прериям в грузовике с кокаином, отбиваясь от драгбаронов и койотов? …

    Информация о видео кодек: MPEG-4 AVC
    Качество фильма: BDRip 720p
    Параметры Видео: 1280x536, 23.976 fps; ~2 070 kbps avg
    Параметры Звука: 44.1 KHz, AAC, ~150.00 kbps avg, 2ch
    Тип видео: mp4
    Автор рипа:
    Релиз-группа:

    Meta Tags


    MI
    General
    Complete name : E: Golye_percy.2014.D.BDRip.720p_KinoGadget.mp4
    Format : MPEG-4
    Format profile : Base Media
    Codec ID : isom
    File size : 1.45 GiB
    Duration : 1h 33mn
    Overall bit rate mode : Variable
    Overall bit rate : 2 228 Kbps
    Movie name : Голые перцы
    Performer : Скот Армстронг
    Genre : Comedy
    ContentType : Short Film
    Recorded date : 2014
    Encoded date : UTC 2015-06-08 18: 52: 59
    Tagged date : UTC 2015-06-08 19: 01: 17
    Cover : Yes
    ContentRating : mpaa|R|400|
    LongDeion : Для чего нужен мальчишник? Чтобы отметить последний день свободной жизни? Разделить сомнения с приятелем, который потом на церемонии вякнет, что он против этой свадьбы? Чтобы твоя оскорбленная невеста уехала одна в оплаченное свадебное путешествие в Мексику? Чтобы ты гнался за ней голый по прериям в грузовике с кокаином, отбиваясь от драгбаронов и койотов? …
    HDVideo : Yes
    Video
    ID : 1
    Format : AVC
    Format/Info : Advanced Video Codec
    Format profile : High@L4.1
    Format settings, CABAC : Yes
    Format settings, ReFrames : 11 frames
    Codec ID : avc1
    Codec ID/Info : Advanced Video Coding
    Duration : 1h 33mn
    Bit rate : 2 070 Kbps
    Maximum bit rate : 9 747 Kbps
    Width : 1 280 pixels
    Height : 536 pixels
    Display aspect ratio : 2.40: 1
    Frame rate mode : Constant
    Frame rate : 23.976 fps
    Color space : YUV
    Chroma subsampling : 4: 2: 0
    Bit depth : 8 bits
    Scan type : Progressive
    Bits/(Pixel*Frame) : 0.126
    Stream size : 1.35 GiB (93%)
    Writing library : x264 core 146 r2538 121396c
    Encoding settings : cabac=1/ref=11/deblock=1: -1: -1/analyse=0x3: 0x133/me=umh/subme=9/psy=1/psy_rd=1.00: 0.00/mixed_ref=1/me_range=24/chroma_me=1/trellis=2/8x8dct=1/cqm=0/deadzone=21, 11/fast_pskip=1/chroma_qp_offset=-2/threads=3/lookahead_threads=1/sliced_threads=0/nr=0/decimate=1/interlaced=0/bluray_compat=0/constrained_intra=0/bframes=4/b_pyramid=2/b_adapt=2/b_bias=0/direct=3/weightb=1/open_gop=0/weightp=2/keyint=240/keyint_min=23/scenecut=40/intra_refresh=0/rc_lookahead=60/rc=crf/mbtree=1/crf=21.0/qcomp=0.60/qpmin=0/qpmax=69/qpstep=4/ip_ratio=1.40/aq=1: 1.50
    Encoded date : UTC 2015-06-08 18: 43: 52
    Tagged date : UTC 2015-06-08 18: 53: 53
    Audio
    ID : 2
    Format : AAC
    Format/Info : Advanced Audio Codec
    Format profile : LC
    Codec ID : 40
    Duration : 1h 33mn
    Bit rate mode : Variable
    Bit rate : 150 Kbps
    Maximum bit rate : 215 Kbps
    Channel count : 2 channels
    Channel positions : Front: L R
    Sampling rate : 44.1 KHz
    Compression mode : Lossy
    Stream size : 99.6 MiB (7%)
    Language : Russian
    Encoded date : UTC 2015-06-08 18: 53: 41
    Tagged date : UTC 2015-06-08 18: 53: 53

    Скриншоты


    Залил: KinoGadget

    Онлайн видео Голые перцы


    Размер скачиваемого торрента: 1.45 GB (1555403621 Bytes)

    Голые перцы/Search Party (2014) BDRip 720p от KinoGadget | iPad
    загрузка...
    Рейтинг →
     (голосов: 1, оценка 3/5, голосовать можно 1 раз )

    Другие торренты по теме:



      Комментарии (0):

      Информация

      Информация

        Посетители, находящиеся в группе Гости, не могут оставлять комментарии в данной новости.

        ↓ Меню



        ↓ Опрос

        А Вы добавили сайт в закладки?
        Да
        Не


        Top 10 за неделю (Фильмы)

        Мой парень – киллер / Mr. Right (2015) WEB-DL 1080p | L скачать торрент бесплатно

        (просмотров: 331)
        Ёлки 5 (2016) WEB-DLRip скачать торрент бесплатно

        (просмотров: 331)
        Разрушение / Demolition (2015) BDRemux 1080p от ExKinoRay | L скачать торрент бесплатно

        (просмотров: 301)
        Экипаж (2016) BDRip от New-Team | D | Лицензия скачать торрент бесплатно
        АНОНСЫ МОИХ РАЗДАЧ
        (просмотров: 301)
        Экипаж (2016) BDRip от New-Team | D | Лицензия скачать торрент бесплатно
        АНОНСЫ МОИХ РАЗДАЧ
        (просмотров: 271)
        Гений / Genius (2016) WEB-DLRip 1080p | Звук TS скачать торрент бесплатно

        (просмотров: 161)
        Кухня (1-5 сезоны: 1-100 серии из 100 + 2 бонуса) / 2012-2015 / РУ / DVDRip, WEB-DLRip скачать торрент бесплатно

        (просмотров: 151)
        Кухня (2015) SATRip скачать торрент бесплатно
        Кухня ? Кухня (2015) SATRip скачать торрент бесплатно
        (просмотров: 141)
        Дуэлянт (2016) WEB-DLRip от Scarabey | iTunes скачать торрент бесплатно

        (просмотров: 131)
        Демон внутри / Вскрытие Джейн Доу / The Autopsy of Jane Doe (2016) WEB-DLRip от Scarabey | P скачать торрент бесплатно
        Мы В КОНТАКТЕ =)
        (просмотров: 111)