.
Авторизация | Регистрация
Хочешь лучшие торренты? Добавь свой email!
Добавить
» » Особо опасен / Wanted (2008) BDRip 720p | D торрент скачать бесплатно




    Особо опасен / Wanted (2008) BDRip 720p | D торрент скачать бесплатно

    Опубликовал: Админ | Дата: 9-06-2015, 09:02 | Просмотров: 116




    Детально о кино
    Русское название: Особо опасен
    Русское название в мировом прокате: Wanted
    Создали в: 2008
    Категория жанра: боевик, триллер, драма
    Главный режиссер: Тимур Бекмамбетов

    Актеры
    Джеймс МакЭвой, Морган Фриман, Анджелина Джоли, Теренс Стэмп, Томас Кречманн, Common, Кристен Хагер, Марк Уоррен, Дэвид О`Хара, Константин Хабенский, Дато Бахтадзе, Крис Прэтт, Лорна Скотт, София Хак, Брэд Калькатерра, Брайан Каспе, Марк О`Нил, Бриджет МакМанус, Скарлетт Спердуто, Боб Эри, Дэниэл Боутон

    Сюжет фильма

    Уэсли Гибсон — зануда и нытик, целыми днями торчащий в офисе. Босс его унижает, подружка ему изменяет. Его жизнь катится в никуда! Обнаружив, что отец, бросивший его в раннем детстве, зверски убит, Уэс оказывается втянут в тайное общество киллеров под названием Братство. За его обучение берется опытная наставница Фокс, и этот когда-то прикованный к офисному креслу хлюпик развивает молниеносную реакцию и сверхчеловеческую скорость. Однако уже на первом задании Уэсли понимает: есть вещи посложнее, чем вершить судьбы других людей. Это — набраться храбрости и стать хозяином собственной жизни.

    Снималось в: США, Германия
    Киностудия: Universal Pictures
    Время просмотра: 01: 55: 13
    Перевод текста: Дублированный
    Файл
    Кодек для видео: x264
    Качество фильма: BDRip 720p
    Информация о видео: 1280x544, 23.976 fps, 3500 kbps
    Информация о звуке: AC-3, 6 ch, 384 kbps

    M/I
    General
    Unique ID : 305895671169606961485948690684029367227 (0xE6215D00FE2303944BB90907745EF3BB)
    Complete name : F: Особо опасен.2008.BLU-RAY.720p.-=DoMiNo=-.mkv
    Format : Matroska
    Format version : Version 4/Version 2
    File size : 2.98 GiB
    Duration : 1h 50mn
    Overall bit rate : 3 862 Kbps
    Writing application : XviD4PSP 7.0.133
    Writing library : Lavf56.15.102
    Video
    ID : 1
    Format : AVC
    Format/Info : Advanced Video Codec
    Format profile : High@L4.1
    Format settings, CABAC : Yes
    Format settings, ReFrames : 9 frames
    Codec ID : V_MPEG4/ISO/AVC
    Duration : 1h 50mn
    Bit rate : 3 500 Kbps
    Width : 1 280 pixels
    Height : 544 pixels
    Display aspect ratio : 2.35: 1
    Frame rate mode : Constant
    Frame rate : 23.976 fps
    Color space : YUV
    Chroma subsampling : 4: 2: 0
    Bit depth : 8 bits
    Scan type : Progressive
    Bits/(Pixel*Frame) : 0.210
    Stream size : 2.62 GiB (88%)
    Writing library : x264 core 146 r2538M 121396c
    Encoding settings : cabac=1/ref=9/deblock=1: -3: -3/analyse=0x3: 0x133/me=umh/subme=10/psy=1/psy_rd=1, 00: 0, 50/mixed_ref=1/me_range=32/chroma_me=1/trellis=2/8x8dct=1/cqm=0/deadzone=21, 11/fast_pskip=0/chroma_qp_offset=-4/threads=12/lookahead_threads=2/sliced_threads=0/nr=0/decimate=1/interlaced=0/bluray_compat=0/constrained_intra=0/bframes=8/b_pyramid=2/b_adapt=2/b_bias=0/direct=3/weightb=1/open_gop=0/weightp=2/keyint=230/keyint_min=23/scenecut=40/intra_refresh=0/rc=2pass/mbtree=0/bitrate=3500/ratetol=1, 0/qcomp=0, 60/qpmin=1/qpmax=69/qpstep=4/cplxblur=20, 0/qblur=0, 5/ip_ratio=1, 40/pb_ratio=1, 30/aq=1: 1, 00
    Default : Yes
    Forced : No
    Color range : Limited
    Color primaries : BT.709
    Transfer characteristics : BT.709
    Matrix coefficients : BT.709
    Audio
    ID : 2
    Format : AC-3
    Format/Info : Audio Coding 3
    Mode extension : CM (complete main)
    Format settings, Endianness : Big
    Codec ID : A_AC3
    Duration : 1h 50mn
    Bit rate mode : Constant
    Bit rate : 384 Kbps
    Channel(s) : 6 channels
    Channel positions : Front: L C R, Side: L R, LFE
    Sampling rate : 48.0 KHz
    Bit depth : 32 bits
    Compression mode : Lossy
    Delay relative to video : 27ms
    Stream size : 303 MiB (10%)
    Language : Russian
    Default : Yes
    Forced : No
    Menu
    00: 00: 00.000 : : Chapter 1
    00: 07: 01.921 : : Chapter 2
    00: 12: 58.235 : : Chapter 3
    00: 20: 58.590 : : Chapter 4
    00: 26: 25.834 : : Chapter 5
    00: 32: 11.512 : : Chapter 6
    00: 37: 30.373 : : Chapter 7
    00: 42: 04.688 : : Chapter 8
    00: 45: 22.136 : : Chapter 9
    00: 51: 52.901 : : Chapter 10
    00: 56: 23.838 : : Chapter 11
    01: 00: 58.780 : : Chapter 12
    01: 04: 00.211 : : Chapter 13
    01: 09: 42.636 : : Chapter 14
    01: 13: 32.032 : : Chapter 15
    01: 20: 23.777 : : Chapter 16
    01: 27: 10.683 : : Chapter 17
    01: 33: 24.557 : : Chapter 18
    01: 39: 26.460 : : Chapter 19
    01: 42: 22.052 : : Chapter 20
    01: 49: 52.794 : : Chapter 21



    Онлайн видео Особо опасен


    Размер скачиваемого торрента: 2.98 GB (3198190382 Bytes)

    Особо опасен/Wanted (2008) BDRip 720p | D
    загрузка...
    Рейтинг →
     (голосов: 1, оценка 3/5, голосовать можно 1 раз )

    Другие торренты по теме:

  • OST - Особо опасен / Wanted Soundtrack (2008) MP3
  • Особо опасен / Wanted (2008) HDRip-AVC | D
  • Особо опасен / Самый опасный человек (2014) HDRip скачать через торрент бесплатно
  • Серия - Особо опасен для рейха в 27 томах (2007-2009) FB2 скачать через торрент бесплатно
  • Особо опасен / Wanted (2008) HDRip-AVC | D
  • Особо опасен / Wanted (2008) HDRip от Шкипер
  • Веденеев Василий - Особо опасен для Рейха 3, Камера смертников (2007) (2015) MP3
  • Веденеев Василий - Особо опасен для Рейха 4, Дорога без следов (2007) (2015) MP3


    • Комментарии (0):

      Информация

      Информация

        Посетители, находящиеся в группе Гости, не могут оставлять комментарии в данной новости.

        ↓ Меню



        ↓ Опрос

        А Вы добавили сайт в закладки?
        Да
        Не


        Top 10 за месяц (Фильмы)