.
Авторизация | Регистрация
» » Похищение / Captivity (2007) DVD9 | D скачать торрент бесплатно




    Похищение / Captivity (2007) DVD9 | D скачать торрент бесплатно

    Опубликовал: Админ | Дата: 10-06-2015, 06:06 | Просмотров: 158



    Детально о кино
    Русское название: Похищение
    Русское название в мировом прокате: Captivity
    Создали в: 2007
    Категория жанра: ужасы, триллер, криминал
    Главный режиссер: Роланд Жоффе

    Актеры
    Элиша Катберт, Дэниэл Гиллис, Прюитт Тэйлор Винс, Майкл Харни, Лас Алонсо, Мэгги Дэймон, Криста Олсон, Карл Паоли, Трент Броин, Анелия Дюльгерова

    Сюжет фильма

    На вечеринке популярная фотомодель Джениффер Три неожиданно теряет сознание после выпитого коктейля. Она оказывается в подвале частного жилого дома, понимает, что похищена.
    Вскоре за стеклянной стеной, разделяющей комнаты, она обнаруживает также плененного молодого человека — водителя Гарри. Молодые люди общаются через стекло, надеясь на побег. С целью избежать судьбы предыдущих жертв маньяка, они пробуют бежать, но каждый раз попадают в искусно расставленную ловушку.


    лицам до 17 лет обязательно присутствие взрослого
    Снималось в: Россия, США
    Киностудия: Captivity Productions LLC, Foresight, Russian American Movie Company (RAMCO)
    Время просмотра: 92 мин./01: 32
    Перевод текста: полное дублирование
    Файл
    Кодек для видео: MPEG2
    Качество фильма: DVD9 West Video
    Информация о видео: PAL 16: 9 (720x576@1024x576) VBR 6542 Kbps, 25.000 fps
    Информация о звуке 1: Dolby AC3, 6 ch, 48.0 KHz, 384 Kbps (русский, английский)
    Информация о звуке 2: DTS 6 ch, 48.0 KHz, 768 Kbps (русский)
    Субтитры: русские, украинские
    MediaInfo
    Общее
    Полное имя : D: ПохищениеVIDEO_TSVTS_11_1.VOB
    Формат : MPEG-PS
    Размер файла : 1024 Мбайт
    Продолжительность : 17 м.
    Режим общего битрейта : Переменный
    Общий поток : 8228 Кбит/сек
    Видео
    Идентификатор : 224 (0xE0)
    Формат : MPEG Video
    Версия формата : Version 2
    Профиль формата : Main@Main
    Параметр BVOP формата : Да
    Параметр матрицы формата : Выборочная
    Параметр GOP формата : M=3, N=12
    Структура изображения : Frame
    Продолжительность : 17 м.
    Вид битрейта : Переменный
    Битрейт : 6542 Кбит/сек
    Максимальный битрейт : 9800 Кбит/сек
    Ширина : 720 пикселей
    Высота : 576 пикселей
    Соотношение сторон : 16: 9
    Частота кадров : 25, 000 кадров/сек
    Стандарт вещания : PAL
    Цветовое пространство : YUV
    Субдискретизация насыщенности : 4: 2: 0
    Битовая глубина : 8 бит
    Тип развёртки : Чересстрочная
    Порядок развёртки : Верхнее поле первое
    Метод сжатия : С потерями
    Бит/(Пиксели*Кадры) : 0.631
    Временной код первого кадра : 00: 00: 00: 00
    Оригинал временного кода : Group of pictures t_head
    GOP, открыто/закрыто : Закрыто
    Размер потока : 814 Мбайт (80%)
    Аудио #1
    Идентификатор : 189 (0xBD)-128 (0x80)
    Формат : AC-3
    Формат/Информация : Audio Coding 3
    Расширение режима : CM (complete main)
    Параметр Endianness формата : Big
    Режим смешивания : DVD-Video
    Продолжительность : 17 м.
    Вид битрейта : Постоянный
    Битрейт : 384 Кбит/сек
    Каналы : 6 каналов
    Расположение каналов : Front: L C R, Side: L R, LFE
    Частота : 48, 0 КГц
    Метод сжатия : С потерями
    Размер потока : 47, 8 Мбайт (5%)
    Аудио #2
    Идентификатор : 189 (0xBD)-129 (0x81)
    Формат : AC-3
    Формат/Информация : Audio Coding 3
    Расширение режима : CM (complete main)
    Параметр Endianness формата : Big
    Режим смешивания : DVD-Video
    Продолжительность : 17 м.
    Вид битрейта : Постоянный
    Битрейт : 384 Кбит/сек
    Каналы : 6 каналов
    Расположение каналов : Front: L C R, Side: L R, LFE
    Частота : 48, 0 КГц
    Метод сжатия : С потерями
    Размер потока : 47, 8 Мбайт (5%)
    Аудио #3
    Идентификатор : 189 (0xBD)-138 (0x8A)
    Формат : DTS
    Формат/Информация : Digital Theater Systems
    Режим : 16
    Параметр Endianness формата : Big
    Режим смешивания : DVD-Video
    Продолжительность : 17 м.
    Вид битрейта : Постоянный
    Битрейт : 755 Кбит/сек
    Каналы : 6 каналов
    Расположение каналов : Front: L C R, Side: L R, LFE
    Частота : 48, 0 КГц
    Битовая глубина : 24 бит
    Метод сжатия : С потерями
    Размер потока : 93, 9 Мбайт (9%)
    Меню
    Скриншоты


    Залил: carisha

    Онлайн видео Похищение


    Размер скачиваемого торрента: 7.24 GB (7774332928 Bytes)

    Похищение/Captivity (2007) DVD9 | D
    загрузка...
    Рейтинг →
     (голосов: 1, оценка 5/5, голосовать можно 1 раз )

    Другие торренты по теме:

  • Полтора рыцаря: В поисках похищенной принцессы Херцелинды / 1 1 / 2 Ritter - Auf der Suche nach der hinreissenden Herzelinde (2008) BDRip 720p торрент скачать бесплатно
  • Лубянка. Олимпиада-80. Битва за Москву. Похищение святого Луки. Операция Бастион (2004) DVDRip-AVC от Тorrent-Хzona торрент скачать бесплатно
  • Агент Хамилтон: Похищенная / Hamilton 2: Men inte om det galler din dotter (2012) DVD5 | Лицензия торрент скачать бесплатно
  • Похищенная призраками / The Uninvited (2008) DVDRip от olegek70 | P торрент скачать бесплатно
  • Врата преисподней: Похищенные печати / Portal Of Evil: Stolen Runes CE (2013) PC торрент скачать бесплатно
  • Похищение / Наказание / Bou ying / Punished (2011) BDRip 720p от HDClub торрент скачать бесплатно
  • Похищение богини (2010) DVB торрент скачать бесплатно
  • Похищение богини (2010) DVDRip от Generalfilm | КПК торрент скачать бесплатно


    • Комментарии (0):

      Информация

      Информация

        Посетители, находящиеся в группе Гости, не могут оставлять комментарии в данной новости.

        ↓ Меню



        ↓ Опрос

        А Вы добавили сайт в закладки?
        Да
        Не


        Top 10 за неделю (Фильмы)