.
Авторизация | Регистрация
» » Вторжение: Битва за рай / Tomorrow, When the War Began (2011) BDRip-AVC | D скачать торрент бесплатно




    Вторжение: Битва за рай / Tomorrow, When the War Began (2011) BDRip-AVC | D скачать торрент бесплатно

    Опубликовал: Админ | Дата: 10-06-2015, 12:01 | Просмотров: 63



    Детально о кино
    Русское название: Вторжение: Битва за рай
    Русское название в мировом прокате: Tomorrow, When the War Began
    Создали в: 2011
    Категория жанра: боевик, драма, приключения, военный
    Главный режиссер: Стюарт Битти

    Актеры
    Кейтлин Стэйси, Рейчел Херд-Вуд, Линкольн Льюис, Дениз Акдениз, Фиби Тонкин, Крис Пэнг, Эшли Каммингс, Эндрю Райан, Колин Фрилз, Пек Анг

    Сюжет фильма

    Группа подростков возвращаются домой после похода и обнаруживают, что их дома захвачены врагом, а все остальные люди взяты в заложники или убиты.

    Снималось в: Австралия
    Время просмотра: 01: 34: 46
    Перевод текста: Профессиональный (полное дублирование)
    Файл
    Кодек для видео: x264
    Качество фильма: BDRip-AVC | исх. BDRemux 1080p
    Информация о видео: 1104x460, (2, 40: 1), 24 fps, ~ 2114 Кбит/сек
    Информация о звуке 1: 48 kHz, AС3, 3/2 (L, C, R, l, r) + LFE ch, ~448 kbps | Профессиональный (полное дублирование)
    Информация о звуке 2: 48 kHz, AС3, 3/2 (L, C, R, l, r) + LFE ch, ~448 kbps | Оригинальная английская дорожка
    Субтитры: Русские, Английские
    Скриншоты

    MediaInfo
    Полное имя : Tomorrow, When the War Began 2010 x264 BDRip-AVC .mkv
    Формат : Matroska
    Версия формата : Version 2
    Размер файла : 2, 18 Гбайт
    Продолжительность : 1 ч. 43 м.
    Общий поток : 3011 Кбит/сек
    Дата кодирования : UTC 2012-02-19 08: 52: 50
    Программа кодирования : mkvmerge v5.0.1 (;Es ist Sommer;) built on Oct 9 2011 11: 55: 43
    Библиотека кодирования : libebml v1.2.2 + libmatroska v1.3.0
    Видео
    Идентификатор : 1
    Формат : AVC
    Формат/Информация : Advanced Video Codec
    Профиль формата : High@L4.0
    Параметр CABAC формата : Да
    Параметр ReFrames формата : 12 кадров
    Идентификатор кодека : V_MPEG4/ISO/AVC
    Продолжительность : 1 ч. 43 м.
    Битрейт : 2114 Кбит/сек
    Ширина : 1104 пикселя
    Высота : 460 пикселей
    Соотношение сторон : 2, 40: 1
    Частота кадров : 24, 000 кадра/сек
    Цветовое пространство : YUV
    Субдискретизация насыщенности : 4: 2: 0
    Битовая глубина : 8 бит
    Тип развёртки : Прогрессивная
    Бит/(Пиксели*Кадры) : 0.173
    Размер потока : 1, 49 Гбайт (68%)
    Заголовок : Tomorrow, When the War Began 2010 x264 BDRip-AVC
    Библиотека кодирования : x264 core 119 r2106 07efeb4
    Настройки программы : cabac=1/ref=12/deblock=1: -2: -1/analyse=0x3: 0x133/me=umh/subme=11/psy=1/psy_rd=1.10: 0.03/mixed_ref=1/me_range=32/chroma_me=1/trellis=2/8x8dct=1/cqm=0/deadzone=21, 11/fast_pskip=0/chroma_qp_offset=-5/threads=6/sliced_threads=0/nr=0/decimate=1/interlaced=0/bluray_compat=0/constrained_intra=0/bframes=10/b_pyramid=2/b_adapt=2/b_bias=0/direct=3/weightb=1/open_gop=0/weightp=2/keyint=250/keyint_min=23/scenecut=40/intra_refresh=0/rc=2pass/mbtree=0/bitrate=2114/ratetol=1.0/qcomp=0.65/qpmin=0/qpmax=61/qpstep=4/cplxblur=20.0/qblur=0.5/ip_ratio=1.40/pb_ratio=1.25/aq=2: 0.90/zones=142164, 149280, b=0.4
    Язык : English
    Default : Да
    Forced : Нет
    Аудио #1
    Идентификатор : 2
    Формат : AC-3
    Формат/Информация : Audio Coding 3
    Расширение режима : CM (complete main)
    Идентификатор кодека : A_AC3
    Продолжительность : 1 ч. 43 м.
    Вид битрейта : Постоянный
    Битрейт : 448 Кбит/сек
    Каналы : 6 каналов
    Расположение каналов : Front: L C R, Side: L R, LFE
    Частота : 48, 0 КГц
    Битовая глубина : 16 бит
    Метод сжатия : С потерями
    Размер потока : 332 Мбайт (15%)
    Заголовок : Rus
    Язык : Russian
    Default : Да
    Forced : Нет
    Аудио #2
    Идентификатор : 3
    Формат : AC-3
    Формат/Информация : Audio Coding 3
    Расширение режима : CM (complete main)
    Идентификатор кодека : A_AC3
    Продолжительность : 1 ч. 43 м.
    Вид битрейта : Постоянный
    Битрейт : 448 Кбит/сек
    Каналы : 6 каналов
    Расположение каналов : Front: L C R, Side: L R, LFE
    Частота : 48, 0 КГц
    Битовая глубина : 16 бит
    Метод сжатия : С потерями
    Размер потока : 332 Мбайт (15%)
    Заголовок : Original (Eng)
    Язык : English
    Default : Нет
    Forced : Нет
    Текст #1
    Идентификатор : 4
    Формат : UTF-8
    Идентификатор кодека : S_TEXT/UTF8
    Идентификатор кодека/Информация : UTF-8 Plain Text
    Заголовок : Rus
    Язык : Russian
    Default : Нет
    Forced : Нет
    Текст #2
    Идентификатор : 5
    Формат : UTF-8
    Идентификатор кодека : S_TEXT/UTF8
    Идентификатор кодека/Информация : UTF-8 Plain Text
    Заголовок : Eng
    Язык : English
    Default : Нет
    Forced : Нет


    Онлайн видео Вторжение: Битва за рай


    Размер скачиваемого торрента: 2.18 GB (2341054926 Bytes)

    Вторжение: Битва за рай/Tomorrow, When the War Began (2011) BDRip-AVC | D
    загрузка...
    Рейтинг →
     (голосов: 1, оценка 5/5, голосовать можно 1 раз )

    Другие торренты по теме:

  • Инопланетное вторжение: Битва за Лос-Анджелес / Battle: Los Angeles (2011) HDRip-AVC торрент скачать бесплатно
  • Инопланетное вторжение: Битва за Лос-Анджелес / Battle Los Angeles (2011) BDRip 720p от HQ-ViDEO торрент скачать бесплатно
  • Инопланетное вторжение: Битва за Лос-Анджелес / Battle: Los Angeles (2011) BDRip 1080p | 60 fps скачать через торрент бесплатно
  • Вторжение. Битва за рай / Tomorrow, When the War Began (2016) PDTVRip | Jaskier скачать торрент бесплатно


    • Комментарии (0):

      Информация

      Информация

        Посетители, находящиеся в группе Гости, не могут оставлять комментарии в данной новости.

        ↓ Меню



        ↓ Опрос

        А Вы добавили сайт в закладки?
        Да
        Не


        Top 10 за неделю (Фильмы)